<?xml version="1.0" standalone="no"?>
<!DOCTYPE svg PUBLIC "-//W3C//DTD SVG 1.1//EN" "http://www.w3.org/Graphics/SVG/1.1/DTD/svg11.dtd" >
<svg xmlns="http://www.w3.org/2000/svg">
<metadata>Generated by IcoMoon</metadata>
<defs>
<font id="icomoon" horiz-adv-x="1024">
<font-face units-per-em="1024" ascent="960" descent="-64" />
<missing-glyph horiz-adv-x="1024" />
<glyph unicode="&#x20;" horiz-adv-x="512" d="" />
<glyph unicode="&#xe600;" glyph-name="account" d="M115.283 645.971c0-8.813 0-17.626 0-26.439 255.643-167.422 511.379 231.183 767.055 101.503 0-151.865 0-303.756 0-455.651 8.786-4.467 17.626-9.564 26.47-15.347 0 160.644 0 321.383 0 482.090-264.547 173.207-529.068-259.361-793.523-86.154zM168.132 671.959c0-8.813 0-17.626 0-26.439 255.675-94.579 511.411 301.479 767.086 93.679 0-151.865 0-303.756 0-455.651 8.813-7.134 17.626-15.049 26.439-23.652 0 160.676 0 321.356 0 482.090-264.488 259.332-528.975-167.871-793.523-70.024zM62.343 636.137c0-160.707 0-321.383 0-482.121 264.488-259.332 528.975 167.871 793.523 70.024 0 160.707 0 321.414 0 482.090-264.547 97.846-529.035-329.329-793.523-69.998zM459.060 191.337c-98.382-49.703-178.183 20.625-178.183 120.417 0 97.037 79.799 186.306 178.183 236.010 98.415 49.281 178.214 4.226 178.214-95.956 0.088-96.738-79.71-211.218-178.214-260.472zM515.447 399.828c-8.574 1.769-24.852-0.059-48.832-4.797 0 25.178 0 50.363 0 75.542 14.268 6.266 24.643 5.907 31.144-1.377 3.509-3.956 5.635-9.713 6.324-17.238 9.082 4.437 18.106 8.873 27.162 13.28-0.57 17.295-6.324 28.57-17.327 33.845-10.974 5.276-26.801 3.509-47.303-4.797 0 6.773 0 13.517 0 20.295-4.916-2.338-9.801-4.646-14.719-6.895 0-6.863 0-13.731 0-20.625-20.743-9.862-36.901-23.112-48.472-40.44-11.511-17.238-17.267-33.515-17.267-49.222 0-17.568 5.365-29.347 16.038-34.953 10.674-5.635 27.281-5.726 49.703 0.45 0-28.12 0-56.325 0-84.503-17.505-6.684-29.408-5.218-35.884 3.718-3.686 4.948-5.935 14.359-6.745 28.179-9.174-3.778-18.286-7.402-27.459-10.732 0-17.806 2.938-30.817 8.842-38.999 10.732-15.229 31.144-17.745 61.244-5.697 0-10.015 0-20.088 0-30.097 4.916 2.278 9.801 4.584 14.719 6.927 0 10.015 0 20.055 0 30.068 18.677 10.942 33.003 22.242 42.93 33.515 17.927 20.354 26.859 44.248 26.859 71.737-0.059 19.005-6.983 29.947-20.955 32.826zM451.896 391.043c-11.571-3.086-20.743-3.118-27.608-0.328-6.863 2.849-10.252 9.443-10.252 19.694 0 8.483 2.908 17.775 8.663 28.027 5.786 10.252 15.557 18.677 29.199 25.508 0-24.343 0-48.623 0-72.904zM503.187 321.557c-6.716-15.379-18.916-27.85-36.574-37.085 0 27.187 0 54.318 0 81.567 12.92 2.581 22.062 3.388 27.58 2.127 9.475-2.070 14.299-9.564 14.299-22.513 0-8.156-1.799-16.188-5.309-24.102z" />
<glyph unicode="&#xe601;" glyph-name="attendance" d="M798.72 857.6l-61.44-153.6h-450.56l-61.44 153.6c-39.424 0-71.68-32.256-71.68-71.68v-778.24c0-39.424 32.256-71.68 71.68-71.68h573.44c39.424 0 71.68 32.256 71.68 71.68v778.24c0 39.424-32.256 71.68-71.68 71.68zM696.32 755.2l46.080 102.4h-111.616l-36.864 102.4h-163.84l-36.874-102.4h-111.606l46.080-102.4h368.64z" />
<glyph unicode="&#xe602;" glyph-name="bus" d="M993.146 800.568h-75.219v-258.783h30.074v-118.829h-57.166v392.637c0 79.761-64.646 144.406-144.406 144.406h-475.381c-79.761 0-144.406-64.646-144.406-144.406v-385.113h-49.642v126.397h31.588v258.716h-75.197v-258.716h31.588v-138.463h61.663v-282.824c0-54.628 30.408-102.244 75.219-126.753v-74.752h126.353v57.121h358.022v-57.144h126.397v73.327c46.436 23.953 78.202 72.37 78.202 128.223v275.345h69.209v130.849h33.102v258.76zM343.285 929.948h336.941v-78.269h-336.941v78.269zM379.347 141.646h-186.524v84.191h186.524v-84.191zM830.664 141.646h-186.524v84.191h186.524v-84.191zM830.664 412.427c0 0-36.107-114.354-324.92-114.354-288.857 0-318.954 114.354-318.954 114.354v397.178h643.873v-397.178z" />
<glyph unicode="&#xe603;" glyph-name="eattendance" d="M479.341 697.927c72.283 0 131.019 58.666 131.019 131.019 0 72.388-58.736 131.054-131.019 131.054s-130.984-58.666-130.984-131.054c0-72.353 58.666-131.019 130.984-131.019zM580.082 398.47l-14.562-30.663-74.348-156.082-9.801-20.442h-132.244l-91.885 367.469-65.667-16.417 104.661-418.75h52.961l-67.907-149.641 41.024-18.657 76.448 168.298h112.047l73.438-168.018 41.374 18.027-65.562 149.991h47.64v67.697h-82.749l9.766 20.442 28.913 60.767 41.269 86.599h227.524v39.379zM530.902 657.217h-148.976l-22.122-445.493h106.341l99.376 208.587v2.695h229.52v68.817h-190.981zM677.113 303.434h-73.718l-43.685-91.71h117.403v-275.725h117.928v367.434h-9.451z" />
<glyph unicode="&#xe604;" glyph-name="exam" d="M831 895.999h64.001v64.001h-768v-64.001h64.001v-64.001h30.5c-46.5-126.312-6.5-269.312 101.061-351.938 16.687-12.812 34.626-23.062 53.001-32.062-18.376-9-36.312-19.25-53.001-32.062-107.562-82.565-147.562-225.626-101.061-351.938h-30.5v-64.001h-64.001v-64.001h768v64.001h-64.001v64.001h-30.5c46.5 126.312 6.5 269.376-101 351.938-16.626 12.812-34.626 23.062-53.001 32.062 18.376 9 36.376 19.25 53.001 32.062 107.5 82.562 147.5 225.562 101 351.938h30.5v64.001zM737.5 819.688c42.626-102.438 11-221.25-77-288.876-26.001-19.938-55.126-33.312-85.5-41.5v-82.626c30.376-8.188 59.5-21.5 85.5-41.5 88-67.626 119.627-186.438 77-288.876l-5.124-12.31h-65.126c10.876 53.688-5.626 111.25-48.5 150.376-22.126 20-48.375 32.562-75.75 38.126v262.186c37.876 5.626 74.626 20.938 106.001 46.688 26.626 21.75 46.126 49 59.626 78.626h-395.126c13.438-29.626 33-56.876 59.5-78.626 31.375-25.75 68.126-41.062 106.001-46.688v-262.188c-27.375-5.562-53.626-18.126-75.626-38.126-43-39.126-59.438-96.689-48.5-150.376h-65.188l-5.126 12.312c-42.688 102.438-11.062 221.25 77 288.876 25.938 20 55.188 33.312 85.439 41.562v82.562c-30.25 8.188-59.438 21.562-85.439 41.5-88.062 67.626-119.688 186.438-77 288.876l5.128 12.314h442.688l5.124-12.312z" />
<glyph unicode="&#xe605;" glyph-name="expense" horiz-adv-x="1029" d="M273.764 294.178h-206.707c-36.78 0-67.057-33.836-67.057-75.45v-207.366c0-41.438 30.277-75.362 67.057-75.362h206.707c36.78 0 66.969 33.88 66.969 75.362v207.366c0 41.614-30.145 75.45-66.969 75.45zM299.119 444.023c0-71.157-57.684-128.84-128.84-128.84s-128.84 57.684-128.84 128.84c0 71.157 57.684 128.84 128.84 128.84s128.84-57.684 128.84-128.84zM961.733 294.178h-206.663c-36.736 0-66.969-33.88-66.969-75.494v-207.366c0-41.438 30.233-75.362 66.969-75.362h206.663c36.912 0 67.013 33.88 67.013 75.362v207.366c0.044 41.658-30.101 75.494-67.013 75.494zM858.336 315.183c71.363 0 128.928 57.653 128.928 128.84s-57.565 128.84-128.928 128.84c-71.1 0-128.709-57.653-128.709-128.84s57.609-128.84 128.709-128.84zM543.353 177.905h-135.256v-83.931h135.256v-57.697l99.706 99.706-99.706 99.662zM636.248 667.385c-11.513 11.513-26.366 21.224-44.602 29.31-9.448 4.131-28.87 9.931-58.444 17.489v167.686c19.027-3.867 34.012-11.996 44.866-24.256 10.898-12.172 18.017-29.925 21.62-52.951l60.246 9.14c-5.229 37.351-20.565 66.573-46.008 87.93-19.818 16.83-46.711 26.805-80.635 30.101v28.167h-34.671v-28.167c-38.845-3.955-67.936-14.457-87.622-31.903-29.53-25.663-44.25-59.323-44.25-100.893 0-23.378 5.009-44.294 15.072-62.75 10.151-18.368 24.476-32.693 43.24-43.152 25.047-14.062 49.611-24.213 73.56-30.321v-183.681c-22.938 2.461-42.537 14.018-58.927 34.803-11.337 14.765-19.379 37.835-23.905 69.298l-59.059-11.293c2.241-30.452 9.931-56.115 23.29-77.252 13.227-21.049 29.046-36.341 47.326-45.744 18.28-9.492 41.965-16.127 71.275-19.774v-58.576h34.627v59.455c40.911 1.933 74.351 16.435 100.058 43.547 25.882 27.069 38.758 60.949 38.758 101.464 0 18.412-3.076 35.55-9.228 51.369-6.24 15.819-15.028 29.442-26.585 40.955zM498.619 723.236c-26.585 6.811-45.437 16.918-56.598 30.277-11.074 13.49-16.786 30.057-16.786 49.919 0 20.17 6.591 37.527 19.686 52.204 13.139 14.633 30.98 23.817 53.698 27.245v-159.644zM589.493 508.663c-14.765-16.83-33.572-26.717-56.247-29.53v174.761c31.375-8.085 52.38-18.632 62.882-31.463 10.458-12.875 15.556-29.881 15.556-51.106 0-24.916-7.382-45.701-22.191-62.662z" />
<glyph unicode="&#xe606;" glyph-name="feetypes" d="M889.876 673.25c3.75-10.812 6.124-21.876 6.124-33.25 0-106-171.938-192-384-192s-384 86-384 192c0 11.376 2.312 22.438 6.126 33.25 65.186-76.876 207.936-129.25 377.874-129.25s312.688 52.374 377.876 129.25zM512 416c-169.938 0-312.688 52.376-377.876 129.25-3.812-10.812-6.124-21.876-6.124-33.25 0-106 171.938-192 384-192s384 86 384 192c0 11.376-2.376 22.438-6.126 33.25-65.186-76.876-207.936-129.25-377.874-129.25zM512 288c-169.938 0-312.688 52.376-377.876 129.25-3.812-10.812-6.124-21.876-6.124-33.25 0-106 171.938-192 384-192s384 86 384 192c0 11.376-2.376 22.438-6.126 33.25-65.186-76.876-207.936-129.25-377.874-129.25zM512 160c-169.938 0-312.688 52.376-377.876 129.25-3.812-10.812-6.124-21.876-6.124-33.25 0-106 171.938-192 384-192s384 86 384 192c0 11.376-2.376 22.438-6.126 33.25-65.186-76.876-207.936-129.25-377.874-129.25zM512 32c-169.938 0-312.688 52.376-377.876 129.25-3.812-10.812-6.124-21.876-6.124-33.25 0-106 171.938-192 384-192s384 86 384 192c0 11.376-2.376 22.438-6.126 33.25-65.186-76.876-207.936-129.25-377.874-129.25zM128 768c0 106 171.938 192 384 192s384-86 384-192-171.938-192-384-192-384 86-384 192zM581.126 725.374c0-6.376-5.376-11.876-16.126-16.376-10.75-4.562-27.626-6.812-50.438-6.812-48.812 0-77.562 10.562-86.25 31.688l-93.75-9.75c18.938-33.626 68-52.062 147.312-55.312v-28.812h60.626v28.938c47.562 2 83.938 8.688 109.126 19.938 25.188 11.312 37.812 25.376 37.812 42.376 0 11-6.126 20.626-18.312 28.876-12.25 8.188-28.562 14.688-49.062 19.376-20.438 4.626-48.688 9.626-84.688 14.876-32.75 4.812-54.188 8.876-64.126 12.126-10 3.25-15 7.938-15 14 0 6 5.188 11.126 15.562 15.312 10.312 4.188 24.062 6.312 41.188 6.312 34.126 0 59.25-9.438 75.562-28.25l83.5 13.75c-19.938 27.376-63.812 42.75-131.562 46v22.37h-60.626v-22.376c-44.876-2.562-77.75-9.5-98.626-20.812s-31.376-24.126-31.376-38.312c0-10.75 5.876-20.25 17.562-28.438 11.688-8.126 26.938-14.438 45.688-18.938s44.812-9.126 78.126-13.75c37.062-5.25 61-9.5 71.75-13 10.752-3.374 16.128-8.374 16.128-15z" />
<glyph unicode="&#xe607;" glyph-name="fine" d="M165.959 552.766c0 0-109.144-428.703-148.303-596.356l209.638 286.897c-19.032 42.337-7.556 106.567 25.741 142.972 44.703 48.834 124.292 48.834 173.162 4.131s52.224-120.55 7.521-169.384c-33.863-37.182-96.503-52.153-140.853-35.593l-261.897-246.254 552.466 213.945 221.996 332.623-290.569 272.066-348.902-205.047zM733.572 960l-159.462-148.056 285.555-275.244 150.952 156.531z" />
<glyph unicode="&#xe608;" glyph-name="hhostel" d="M128 689.328l-112-149.328v-225.328l112 54.656zM873.328 469.328l-729.328 220v-316l296.928-34.24 285.472 58.080c0.496 0.112 0.992-0.032 1.504-0.032s1.024 0.16 1.552 0.064l149.76-27.728-5.888 99.856zM288 592l144-40v-17.648l-144 36.544v21.104zM432 464l-144 24.672v65.712l144-36.544v-53.84zM406 334l-268 28-110-50 203.328-14zM736 379.712v-325.36l213.056 25.648h10.944v1.312l48 5.776v242.256l-272 50.368zM768 301.376v1.952l96-13.136v-205.808l-96-11.712v228.704zM992 100l-32-3.904v180.96l32-4.384v-172.672zM944 94.144l-64-7.808v201.664l64-8.768v-185.088zM192 272.128v-153.056l160-19.6v131.2l80 9.328v-150.336l288-35.296v325.184l-227.856-46.368zM176 278.672v0 0z" />
<glyph unicode="&#xe609;" glyph-name="hostel" horiz-adv-x="1030" d="M112.595 85.348v-149.348h-78.246v546.623c0 21.571 17.518 39.295 39.089 39.295v0c21.846 0 39.089-17.724 39.089-39.295v-323.22h882.346v-223.403h-78.864v149.348h-803.413zM233.158 325.101c39.089 0 70.758 31.669 70.758 70.964 0 39.020-31.669 70.689-70.758 70.689-39.295 0-70.964-31.669-70.964-70.689-0.069-39.295 31.601-70.964 70.964-70.964zM996.109 218.139l-0.275 97.55c-0.275 30.982-26.311 52.347-56.469 56.057l-556.997 55.439c-1.168 0.275-2.13 0.824-3.091 0.824-19.167 0-34.829-15.732-34.829-34.761v-105.175h-145.707c-19.441 0-35.036-15.8-35.036-35.036 0-19.304 15.594-34.898 35.036-34.898h797.368zM1030.458 703.622l-514.542 255.691-0.206 0.687-0.481-0.275-0.481 0.275-0.206-0.687-514.542-255.691 42.867-86.284 472.362 234.807 472.362-234.807 42.867 86.284z" />
<glyph unicode="&#xe60a;" glyph-name="invoice" d="M317.366 528.587c-9.451-7.918-20.434-10.983-36.015-12.516v84.29c18.646-6.13 31.162-12.516 39.080-18.646 6.13-6.13 10.983-15.581 10.983-26.564-1.53-10.983-6.128-20.179-14.048-26.564zM250.192 749.019c-14.048-1.533-25.032-6.13-32.95-12.516-7.918-7.918-12.516-17.113-12.516-26.564 0-10.983 3.065-18.646 9.451-25.032 6.13-6.13 18.646-12.516 36.015-18.646v82.758zM984.792 570.732v-519.024c0-64.112-51.593-115.71-115.705-115.71h-714.169c-64.112 0-115.708 51.598-115.708 115.71v792.585c0 64.112 51.596 115.708 115.708 115.708h446.994c45.208 0 67.174-12.516 95.271-42.145l243.931-246.996c32.697-31.162 43.678-51.596 43.678-100.127zM470.621 686.44h171.899c20.434 0 36.020 15.581 36.020 34.482v26.564c0 18.646-15.586 34.482-36.020 34.482h-171.899v-95.529zM250.192 608.279v-92.209c-28.097 4.598-54.661 17.113-81.225 40.613l-34.482-40.613c34.482-29.629 73.562-46.998 115.708-51.596v-34.227h29.629v34.482c32.95 1.533 57.726 10.983 78.16 28.097 18.646 17.113 29.629 40.613 29.629 67.177 0 28.097-7.918 48.531-25.032 62.579s-43.678 26.564-79.693 34.482h-1.533v89.143c25.032-3.065 46.998-14.048 67.177-28.097l31.162 43.678c-31.162 20.434-64.112 32.95-98.594 34.482v26.564h-29.629v-23.499c-29.629-1.533-54.661-10.983-73.562-28.097-18.646-17.113-29.629-40.613-29.629-67.177s9.451-46.998 25.032-62.579c15.836-12.771 40.868-25.287 76.883-33.205zM892.584 101.771c0 18.649-15.581 34.482-36.015 34.482h-692.458c-20.434 0-34.482-15.581-34.482-34.482v-26.564c0-18.643 15.581-34.482 34.482-34.482h692.458c18.649 0 36.015 15.581 36.015 34.482v26.564zM892.584 317.605c0 18.649-15.581 34.482-36.015 34.482h-692.458c-20.434 0-34.482-15.581-34.482-34.482v-26.564c0-18.643 15.581-34.482 34.482-34.482h692.458c18.649 0 36.015 15.581 36.015 34.482v26.564zM892.584 533.44c0 18.646-15.581 34.482-36.015 34.482h-385.948v-95.274h386.203c18.649 0 36.015 15.581 36.015 34.482v26.309h-0.255z" />
<glyph unicode="&#xe60b;" glyph-name="issue" d="M388.569 152.694c-47.616 0-86.331-38.715-86.331-86.489 0-47.616 38.715-86.37 86.331-86.37 47.813 0 86.41 38.754 86.41 86.37 0.039 47.774-38.597 86.489-86.41 86.489zM765.913 152.694c-47.734 0-86.449-38.715-86.449-86.489 0-47.616 38.715-86.37 86.449-86.37s86.331 38.754 86.331 86.37c0.039 47.774-38.597 86.489-86.331 86.489zM986.112 626.609h-27.569l-27.609-86.686-26.9-90.782-8.586-27.766-63.291 230.4c-0.079 0.158-0.079 0.158-0.079 0.158-1.457 5.278-6.971 8.468-12.209 6.971-2.402-0.591-4.293-2.009-5.553-3.899-5.75-6.065-46.474-46.395-85.307-24.3-3.623 2.166-7.916 1.694-11.106-0.709-3.151-2.481-4.49-6.656-3.466-10.555l81.054-294.518c1.378-5.356 6.892-8.468 12.17-7.010l62.622 17.25-15.321-51.751h-485.534l-32.177 256.512-10.398 86.686c0 0-9.413 79.911-14.69 112.994-5.356 33.162-88.34 74.673-266.634 158.72-41.945 17.566-76.958-59.116 0-99.289l140.603-65.654c0 0 32.689-19.023 35.486-44.544 2.875-25.482 59.904-448.551 59.904-448.551s2.284-58.801 55.729-58.801c53.484 0 491.796 0 536.694 0 44.82 0 53.602 46.868 53.602 46.868l106.26 315.865c0.039-0.039 31.705 82.393-47.695 82.393zM811.914 333.509l-76.17 277.15c12.879-2.914 25.364-1.969 36.706 1.182l57.659-209.447c1.024-3.899 4.923-6.026 8.783-5.002 3.781 1.024 5.947 4.923 4.923 8.783l-57.895 210.511c12.839 5.671 23.71 13.43 31.547 19.968l68.096-247.65-6.302-20.559 0.945 0.079-5.159-17.605-63.134-17.408zM714.279 421.218c-1.615 3.742-5.159 6.144-9.255 6.144h-305.388c-5.593 0-10.004-4.529-10.004-9.964v-102.124c0-5.514 4.411-9.925 10.004-9.925h305.349c0.118 0 0.118 0 0.118 0 5.593 0 10.082 4.411 10.082 9.925 0 2.363-0.906 4.608-2.363 6.302-4.293 7.326-32.492 57.108-0.788 88.773 2.954 2.836 3.742 7.168 2.245 10.87zM403.456 323.584v85.662h287.468c-6.262-11.697-8.704-23.906-8.704-35.722h-217.246c-3.978 0-7.089-3.19-7.089-7.129 0-3.978 3.111-7.129 7.089-7.129h218.388c2.048-13.903 6.656-26.466 10.91-35.682h-290.816zM398.572 443.904h305.428c0.079 0 0.079 0 0.079 0 5.553 0 10.082 4.45 10.082 9.964 0 2.442-0.906 4.569-2.402 6.302-4.332 7.207-32.414 57.068-0.827 88.773 2.993 2.796 3.781 7.168 2.284 10.91-1.575 3.623-5.238 6.065-9.216 6.065h-305.428c-5.593 0-10.004-4.45-10.004-9.925v-102.164c0-5.435 4.45-9.925 10.004-9.925zM402.471 547.761h287.39c-6.183-11.658-8.665-23.906-8.665-35.761h-217.246c-3.978 0-7.089-3.111-7.089-7.050s3.111-7.168 7.089-7.168h218.348c2.127-13.903 6.735-26.427 10.87-35.682h-290.737v85.662z" />
<glyph unicode="&#xe60c;" glyph-name="lbooks" d="M511.872 739.584c-113.696 38.016-245.408 12.896-245.408 12.896l-31.392-93.856c0 0 108-3.232 233.12-54.432 125.152-51.168 217.344-103.328 217.344-103.328l34.080 101.92c0.032-0.032-94.112 98.752-207.744 136.8zM909.152 597.44l-36.64 39.968 3.968 11.808c0 0 34.176 60-49.12 50.528-4.32-0.768-6.944-2.144-8.448-3.872l-241.856 264.128-465.056-92.704 125.024-116.288 7.264 21.696c0 0 146.88 28.064 273.632-14.336 126.752-42.432 231.712-152.608 231.712-152.608l-12.672-37.952 95.968 16.512c-16.96-50.656-36.48-109.024-42.528-127.072l-27.072 9.056-21.024-62.88 44.352 12.864 31.616-38.24 21.024 62.848-29.248 9.792 46.048 137.632 53.056 9.12zM860.48 666.688c-0.512-1.504-1.92-5.728-3.968-11.84l-19.328 21.12c10.592 2.88 28.32 5.76 23.296-9.28zM854.624 612.64c-3.52-10.528-14.88-16.16-25.376-12.64-10.496 3.488-16.192 14.848-12.672 25.376 3.52 10.496 14.88 16.16 25.376 12.64 10.528-3.488 16.16-14.88 12.672-25.376zM468.48 591.936l-229.504-23.264-8.736 6.016 220.544 23.904c-3.136 1.184-6.496 2.4-9.792 3.648l-216.608-23.52-7.296 4.96 211.328 23.104c-3.232 1.152-6.464 2.336-9.856 3.584l-207.328-22.656-8 5.536 200.704 22.208c-3.424 1.184-6.976 2.4-10.368 3.52l-196.224-21.728-8.928 6.144 187.552 20.864c-4.064 1.152-8.032 2.272-12.032 3.328l-181.376-20.16-9.696 6.688 13.888 1.44 157.184 17.056c-39.968 9.344-74.24 13.28-99.328 14.816l-115.328-12.224v-640.768l87.488-61.728v-0.48l457.184 46.368 0.096 519.68c-20.832 10.080-38.688 18.752-54.272 26.272-67.008 32.64-93.696 45.536-151.296 67.392zM599.424 332.512l-272.448-29.632v153.472l272.448 29.6v-153.44z" />
<glyph unicode="&#xe60d;" glyph-name="library" d="M0.011 881.954h184.742v-92.371h-184.742v92.371zM0.011 752.635h184.742v-628.134h-184.742v628.134zM33.876 240.751c0-31.892 25.832-57.735 57.735-57.735 31.892 0 57.735 25.832 57.735 57.735s-25.843 57.745-57.735 57.745c-31.902-0.011-57.735-25.874-57.735-57.745zM0.011 13.655h184.742v73.897h-184.742v-73.897zM221.701 100.473v-86.818h240.165v87.272c-9.807 7.010-40.274 23.573-110.845 23.573-66.898 0-109.621-14.991-129.32-24.027zM221.701 631.929c19.699-9.015 62.422-24.027 129.32-24.027 70.128 0.011 100.669 16.363 110.845 23.7v65.61h-240.165v-65.283zM221.701 591.93v-451.447c26.751 10.008 69.59 20.955 129.32 20.955 53.892 0 88.856-9.015 110.845-18.643v446.791c-21.99-9.607-56.953-18.633-110.845-18.633-59.73 0.021-102.569 10.968-129.32 20.976zM853.615 886.103l-126.68-25.991 18.58-90.481 126.68 25.991-18.58 90.481zM1005.842 144.083l-126.659-26.001-126.269 615.34 126.68 25.991 126.248-615.329zM961.895 253.757c-6.408 31.216-31.364 52.477-55.687 47.484-24.354-5.014-38.933-34.394-32.494-65.61 6.408-31.216 31.343-52.498 55.687-47.484 24.354 4.993 38.912 34.352 32.494 65.61zM1013.285 107.937l-126.702-26.012 14.864-72.356 126.68 25.991-14.843 72.377zM517.289 789.583h184.742v92.371h-184.742v-92.371zM517.289 13.655h184.742v73.897h-184.742v-73.897zM517.289 216.872h184.742v443.392h-184.742v-443.392zM517.289 124.5h184.742v55.423h-184.742v-55.423zM517.289 697.212h184.742v55.423h-184.742v-55.423z" />
<glyph unicode="&#xe60e;" glyph-name="mailandsms" d="M506.63 960l-497.041-378.727h-2.372v-645.273h1007.195v645.273h2.372l-510.153 378.727zM932.181 537.566l-421.384-351.148-421.384 351.148h842.768zM970.704-20.327h-919.781v533.091l459.873-383.2 459.907 383.2v-533.091zM693.418 672.956c-0.949 1.287-2.575 2.473-4.879 3.625-2.236 1.152-5.421 2.338-9.419 3.625-4.066 1.287-9.182 2.778-15.382 4.54-5.658 1.626-11.384 3.32-17.246 5.15s-11.113 4.235-15.721 7.285c-4.642 3.015-8.47 6.878-11.452 11.486-2.914 4.642-4.371 10.605-4.371 17.856 0 8.335 1.592 15.518 4.947 21.481 3.287 5.963 7.657 10.91 13.010 14.84 5.387 3.896 11.587 6.742 18.601 8.572s14.162 2.744 21.583 2.744c7.793 0 15.281-0.813 22.43-2.439 7.081-1.592 13.417-4.269 19.008-7.962 5.523-3.693 9.927-8.538 13.315-14.569 3.388-5.963 5.184-13.349 5.489-22.057h-42.013c0.474 2.677 0.136 4.947-0.881 6.81-0.983 1.897-2.439 3.456-4.303 4.676-1.897 1.355-3.964 2.27-6.268 2.812-2.27 0.542-4.608 0.813-6.878 0.813-1.457 0-3.185-0.136-5.048-0.44-1.965-0.237-3.659-0.678-5.319-1.355-1.592-0.712-2.948-1.626-4.032-2.914-1.050-1.287-1.626-2.914-1.626-4.947 0.169-2.541 1.457-4.642 3.93-6.37 2.507-1.66 5.692-3.117 9.588-4.438 3.896-1.287 8.267-2.473 13.214-3.625s9.927-2.372 15.043-3.727c5.082-1.491 10.063-3.253 14.874-5.252 4.913-2.033 9.182-4.608 13.044-7.759 3.829-3.185 6.878-7.047 9.182-11.723 2.236-4.642 3.456-10.232 3.456-16.839 0-9.419-1.999-17.28-5.895-23.615-3.896-6.302-9.012-11.384-15.348-15.247-6.336-3.829-13.417-6.573-21.379-8.267-7.928-1.694-15.958-2.507-24.022-2.507-2.711 0-6.133 0.203-10.3 0.61-4.167 0.373-8.606 1.287-13.349 2.609-4.71 1.355-9.385 3.151-14.095 5.455-4.71 2.27-8.945 5.387-12.739 9.284-3.761 3.896-6.878 8.606-9.284 14.129-2.406 5.489-3.591 12.096-3.591 19.753h44.419c0-3.49 0.542-6.675 1.626-9.487 1.592-4.303 4.54-7.115 8.674-8.47 4.134-1.321 8.301-2.033 12.468-2.033 1.762 0 3.659 0.169 5.828 0.508 2.135 0.305 4.201 1.016 6.065 2.033 1.931 0.983 3.49 2.338 4.676 3.998 1.22 1.694 1.83 3.862 1.83 6.573-0.034 1.897-0.508 3.49-1.457 4.777zM427.652 770.738h63.189l20.566-84.738h0.407l20.566 84.738h63.121v-144.098h-41.945v92.429h-0.407l-25.005-92.429h-33.102l-25.005 92.429h-0.407v-92.429h-41.979v144.098zM368.326 672.956c-0.915 1.287-2.541 2.473-4.845 3.625s-5.455 2.338-9.487 3.625c-4.032 1.287-9.148 2.778-15.348 4.54-5.658 1.592-11.418 3.32-17.246 5.116-5.861 1.863-11.113 4.269-15.721 7.285-4.642 3.015-8.47 6.878-11.384 11.486-3.015 4.676-4.472 10.639-4.472 17.889 0 8.335 1.66 15.518 4.947 21.481s7.623 10.91 13.010 14.84c5.353 3.896 11.554 6.742 18.567 8.572s14.162 2.744 21.583 2.744c7.759 0 15.281-0.813 22.396-2.439 7.115-1.592 13.451-4.269 18.974-7.962s9.961-8.538 13.349-14.569c3.354-5.963 5.184-13.349 5.455-22.057h-41.945c0.373 2.677 0.068 4.947-0.915 6.81-1.016 1.897-2.473 3.456-4.371 4.676-1.863 1.355-3.964 2.27-6.268 2.812s-4.54 0.813-6.844 0.813c-1.491 0-3.151-0.136-5.014-0.44-1.931-0.237-3.693-0.678-5.286-1.355-1.626-0.678-2.982-1.626-4.066-2.914-1.050-1.287-1.592-2.948-1.592-4.981 0.102-2.541 1.423-4.642 3.93-6.336s5.658-3.151 9.588-4.438c3.896-1.287 8.335-2.473 13.214-3.625 4.947-1.152 9.927-2.372 15.043-3.727 5.116-1.491 10.097-3.253 14.942-5.252 4.845-2.033 9.182-4.608 13.010-7.759 3.829-3.185 6.912-7.047 9.182-11.723 2.27-4.642 3.422-10.232 3.422-16.839 0-9.419-1.931-17.28-5.828-23.615-3.896-6.302-9.012-11.384-15.348-15.247-6.336-3.829-13.451-6.573-21.379-8.267s-15.924-2.507-23.988-2.507c-2.711 0-6.133 0.203-10.3 0.61-4.235 0.339-8.64 1.254-13.383 2.609-4.71 1.321-9.419 3.151-14.129 5.421-4.676 2.304-8.945 5.421-12.706 9.317s-6.844 8.606-9.25 14.095c-2.439 5.523-3.659 12.13-3.659 19.787h44.385c0-3.49 0.542-6.675 1.592-9.487 1.66-4.303 4.54-7.115 8.708-8.47 4.167-1.321 8.369-2.033 12.536-2.033 1.728 0 3.693 0.169 5.828 0.508 2.135 0.305 4.167 1.016 6.065 2.033 1.897 0.983 3.456 2.338 4.642 3.998 1.22 1.694 1.796 3.862 1.796 6.573 0 1.897-0.44 3.49-1.389 4.777z" />
<glyph unicode="&#xe60f;" glyph-name="mailandsmstop" d="M655.478 132.923c0-10.831-8.862-19.692-19.692-19.692h-512c-10.831 0-19.692 8.862-19.692 19.692v708.923c0 10.831 8.862 19.692 19.692 19.692h512c10.831 0 19.692-8.862 19.692-19.692v-136.034h39.385v175.419c0 43.323-35.446 78.769-78.769 78.769h-472.615c-43.323 0-78.769-35.446-78.769-78.769v-866.462c0-43.323 35.446-78.769 78.769-78.769h472.615c43.323 0 78.769 35.446 78.769 78.769v175.419h-39.385v-57.265zM340.401 923.648h78.769c10.831 0 19.692-6.262 19.692-13.942s-8.862-13.942-19.692-13.942h-78.769c-10.831 0-19.692 6.262-19.692 13.942 0 7.641 8.822 13.942 19.692 13.942zM163.17 929.359c10.831 0 19.692-8.822 19.692-19.692s-8.862-19.692-19.692-19.692-19.692 8.822-19.692 19.692c0 10.87 8.822 19.692 19.692 19.692zM379.786-22.095c-25.954 0-46.986 20.992-46.986 46.946 0 25.994 21.031 47.025 46.986 47.025s47.025-21.031 47.025-47.025c0-25.836-21.071-46.946-47.025-46.946zM275.535 594.235l263.759-131.86c39.739-19.85 113.822-19.85 153.482 0l263.759 131.86c-9.846 41.196-46.828 72.192-90.939 72.192h-499.161c-44.032 0-81.093-30.996-90.9-72.192zM706.757 434.491c-24.418-12.209-56.635-18.905-90.703-18.905-34.107 0-66.363 6.735-90.742 18.905l-72.94 36.47-179.633-89.797v-57.974c0-51.515 42.142-93.617 93.617-93.617h499.318c51.515 0 93.617 42.102 93.617 93.617v57.974l-179.673 89.758-72.862-36.431zM814.592 488.369l144.699-72.35v144.699zM272.817 416.020l144.738 72.35-144.738 72.35z" />
<glyph unicode="&#xe610;" glyph-name="member" d="M421.202 477.837c133.146 0 241.082 107.936 241.082 241.082s-107.936 241.082-241.082 241.082-241.082-107.936-241.082-241.082 107.936-241.082 241.082-241.082zM533.871 623.054c-10.967-36.261-57.947-63.52-114.25-63.52-56.305 0-103.283 27.259-114.25 63.52h228.5zM1010.13 246.751c-5.17-142.808-63.245-265.548-198.857-310.751-135.611 45.203-193.687 167.942-198.856 310.751-0.404 11.135 8.796 20.159 19.928 19.684 63.369-2.702 118.674 17.697 167.114 57.76 6.817 5.638 16.809 5.638 23.626 0 48.44-40.063 103.745-60.462 167.113-57.76 11.133 0.475 20.333-8.549 19.931-19.684zM570.888 245.263c2.368-65.6 14.885-123.763 36.649-173.491-51.246-5.782-112.82-9.592-186.335-9.592-232.453 0-346.207 37.984-387.912 56.54-10.761 4.787-19.432 18.477-19.432 30.255v79.468c0 119.084 90.668 217.874 206.36 231.107 3.515 0.403 8.728-1.102 11.594-3.177 53.343-38.618 118.65-61.665 189.39-61.665s136.047 23.048 189.39 61.665c2.866 2.075 8.078 3.58 11.594 3.177 66.769-7.636 125.070-43.868 162.551-95.954-4.154-2.045-8.159-4.392-11.752-7.369-39.439-32.603-81.816-48.466-129.536-48.466-3.085 0-6.186 0.065-9.352 0.211l-2.582 0.049c-16.415 0-32.343-6.771-43.725-18.574-11.336-11.758-17.507-27.881-16.905-44.183z" />
<glyph unicode="&#xe611;" glyph-name="message" d="M293.757 526.554c0-72.563-58.824-131.387-131.387-131.387s-131.387 58.824-131.387 131.387c0 72.563 58.824 131.387 131.387 131.387s131.387-58.824 131.387-131.387zM353.993 664.674l-40.756-71.184c0 0 130.635 20.166 220.939 46.901 90.337 26.768 178.614 76.577 178.614 150.016 0.065 84.911-102.005 153.742-227.933 153.742-125.896 0-227.933-68.831-227.933-153.742 0-51.999 38.436-97.919 97.069-125.733zM560.682 344.116c0-79.296-64.282-143.578-143.578-143.578s-143.578 64.282-143.578 143.578c0 79.296 64.282 143.578 143.578 143.578s143.578-64.282 143.578-143.578zM472.535 178.935l-52.947-63.471-54.712 63.471-118.706-20.394-6.504-206.689h355.137l-6.504 206.689zM323.63 214.004c-43.24 27.225-72.165 75.302-72.165 130.079 0 10.72 1.144 21.179 3.236 31.343h-41.606l-48.437-58.078-50.071 58.078-108.574-20.362-6.014-187.471h223.815l1.438 9.119 99.913 20.362-1.536 16.93zM774.888 643.070c-137.564 0-249.079-75.27-249.079-168.025 0-56.836 41.998-106.972 106.057-137.466l-44.515-77.754c0 0 142.728 21.963 241.431 51.247 98.736 29.252 195.25 83.637 195.25 163.939-0.033 92.788-111.581 168.057-249.145 168.057z" />
<glyph unicode="&#xe612;" glyph-name="payment" horiz-adv-x="1047" d="M222.673 803.868c-9.795-10.963-14.557-23.948-14.557-38.999 0-14.827 4.089-27.183 12.356-37.202 8.357-10.019 22.6-17.568 42.234-22.6v119.199c-16.984-2.651-30.283-9.435-40.033-20.398zM288.72 653.173v-130.477c16.939 2.112 31.002 9.435 42.054 22.061 10.963 12.58 16.714 28.171 16.714 46.727 0 15.905-4.044 28.575-11.862 38.235-7.773 9.525-23.364 17.433-46.907 23.453zM998.929 363.734l1.752-2.696-39.943 136.408c-5.077 17.388-16.669 31.721-32.619 40.437-15.905 8.671-34.282 10.693-51.535 5.616l-8.267-2.426c-13.614-3.954-23.049-14.512-31.586-25.43-12.176 33.428-47.446 52.928-81.997 42.863l-19.23-5.661c-12.58-3.729-22.195-12.086-30.507-21.342-0.090 0.315-1.168 4.268-1.168 4.268-10.514 35.899-48.39 56.477-84.244 45.918l-19.23-5.616c-11.906-3.46-19.5-13.389-27.587-22.33-8.402 28.486-16.669 56.926-23.678 80.784v217.012c0 59.712-48.839 108.461-108.371 108.461h-332.213c-59.622 0-108.506-48.749-108.506-108.461v-379.569c0-59.712 48.884-108.506 108.506-108.506h332.213c8.492 0 16.669 1.213 24.622 3.1 6.11-20.982 10.289-35.225 10.918-37.427-10.244-31.496-29.070-129.893-35.27-162.332 0.090-10.693 4.718-52.388 36.618-74.674l193.514-124.187c4.673-2.876 7.054-4.493 7.054-4.493 45.874-26.059 89.546-33.698 127.601-22.555l114.167 33.428c77.235 22.555 128.14 116.863 127.062 190.593-0.764 42.953-31.226 165.208-48.075 198.815zM701.492 1.238c-3.909 2.202-7.683 4.583-7.683 4.583 0.764-0.584-190.997 122.344-190.997 122.344-12.895 9.031-17.613 29.474-18.242 36.618 12.895 64.475 29.519 144.135 34.551 155.458l3.235 7.324-2.067 8.222-95.566 326.012c-3.594 12.401 3.774 25.925 16.175 29.609l19.23 5.526c12.58 3.729 25.835-3.549 29.519-16.13l96.42-329.337 49.603 17.478-5.392 20.219-33.742 115.111c-1.752 6.021-0.988 12.401 1.977 18.017 3.145 5.616 8.177 9.705 14.198 11.502l19.23 5.616c12.67 3.729 25.88-3.549 29.564-16.175l41.156-140.272 55.219 9.84-7.099 23.409-19.095 64.654c-3.729 12.535 3.639 25.835 16.175 29.564l19.275 5.661c12.535 3.684 25.79-3.639 29.474-16.22l28.575-97.184 56.747 6.425-7.099 25.161-10.244 34.956c-1.707 6.11-0.988 12.535 2.067 18.152 2.92 5.571 8.042 9.615 14.018 11.322l8.447 2.471c6.021 1.797 12.311 1.033 17.882-1.977 5.616-3.055 9.75-8.087 11.502-14.153l40.212-137.171 0.449-1.033c5.032-13.569 42.863-128.635 43.897-182.506 0.809-56.342-38.235-130.881-95.297-147.64l-114.257-33.428c-33.203-9.75-68.428 4.358-92.017 17.972zM363.349 518.518c-19.23-20.263-44.031-31.047-74.719-32.529v-44.391h-25.88v43.807c-21.656 2.696-39.493 7.548-53.287 14.692-13.614 7.009-25.341 18.421-35.225 34.147-10.064 15.77-15.77 34.956-17.253 57.69l43.897 8.447c3.549-23.543 9.345-40.752 17.837-51.759 12.221-15.591 27.003-24.262 43.986-25.97v137.126c-17.792 4.673-36.079 12.176-54.904 22.735-13.973 7.773-24.667 18.466-32.17 32.26-7.593 13.749-11.322 29.294-11.322 46.772 0 31.047 10.963 56.163 32.934 75.437 14.647 12.985 36.528 20.848 65.418 23.813v21.027h25.925v-21.027c25.296-2.426 45.514-9.93 60.251-22.51 19.14-15.905 30.463-37.876 34.371-65.598l-44.93-6.784c-2.696 17.208-7.998 30.328-16.13 39.538-8.132 9.166-19.275 15.186-33.473 18.107v-125.31c22.061-5.616 36.483-10.019 43.762-13.075 13.524-5.976 24.577-13.299 33.248-21.881 8.582-8.537 15.186-18.781 19.679-30.597 4.763-11.817 6.964-24.622 6.964-38.415 0-30.283-9.57-55.489-28.98-75.752z" />
<glyph unicode="&#xe613;" glyph-name="paymentsettings" d="M964.762 917.721h-905.517c-32.586 0-59.245-26.662-59.245-59.245 0 0 0-69.198 0-92.262 0-21.374 18.061-21.374 18.061-21.374s705.068 0 988.842 0c17.094 0 17.094 13.199 17.094 13.199v100.437c0.003 32.583-26.652 59.245-59.235 59.245zM999.319 662.017c-120.81 0-716.296 0-980.673 0-18.646 0-18.646-14.816-18.646-14.816v-437.265c0-13.909 4.887-26.711 13-36.836 1.779-2.22 5.777-2.070 5.777 6.093v118.278c0 17.265 11.99 24.338 21.19 37.586 2.321 3.343 1.923 11.702 1.923 11.702 0 120.534 98.061 218.599 218.596 218.599s218.596-98.061 218.596-218.599c0 0-0.753-7.336 1.255-10.673 8.313-13.818 21.861-21.353 21.861-38.615 0 0 0-101.337 0-135.117 0-11.665 10.578-11.665 10.578-11.665h451.985c32.583 0 59.238 26.662 59.238 59.245v427.936c0 0 0 24.148-24.681 24.148zM924.414 261.618c0-12.284-10.049-22.335-22.332-22.335h-145.552c-12.284 0-22.332 10.052-22.332 22.335v86.353c0 12.284 10.049 22.332 22.332 22.332h145.552c12.284 0 22.332-10.049 22.332-22.332v-86.353zM924.414 471.17c0-12.284-10.049-22.332-22.332-22.332h-373.348c-12.281 0-22.332 10.049-22.332 22.332v8.19c0 12.281 10.052 22.332 22.332 22.332h373.348c12.284 0 22.332-10.052 22.332-22.332v-8.19zM434.739 303.283c0 0-7.376-0.334-7.376 5.67 0 6.849 0 27.412 0 27.412 0 92.014-74.859 166.874-166.874 166.874-92.011 0-166.877-74.859-166.877-166.874 0 0 0-19.812 0-26.417 0-6.935-9.338-6.665-9.338-6.665-6.393 0-11.625-5.233-11.625-11.622v-301.758c0-6.393 5.233-11.622 11.625-11.622h352.43c6.39 0 11.622 5.229 11.622 11.622v301.758c0 6.387-7.198 11.622-13.588 11.622zM301.057 104.533c0-22.403-18.162-40.568-40.568-40.568s-40.568 18.165-40.568 40.568v68.512c0 22.406 18.162 40.568 40.568 40.568s40.568-18.162 40.568-40.568v-68.512zM376.958 303.283c-57.328 0-170.658 0-229.312 0-8.799 0-8.931 6.258-8.931 6.258v26.824c0 67.141 54.627 121.765 121.768 121.765 67.144 0 121.768-54.624 121.768-121.765v-28.217c0.003-0.003 0.508-4.865-5.294-4.865z" />
<glyph unicode="&#xe614;" glyph-name="phistory" d="M853.252 86.349h-57.872v39.286c0 2.235-1.82 4.063-4.063 4.063s-4.063-1.829-4.063-4.063v-39.286h-73.143v39.286c0 2.235-1.82 4.063-4.063 4.063s-4.063-1.829-4.063-4.063v-39.286h-73.143v39.286c0 2.235-1.82 4.063-4.063 4.063s-4.063-1.829-4.063-4.063v-39.286h-73.143v39.286c0 2.235-1.82 4.063-4.063 4.063s-4.063-1.829-4.063-4.063v-39.286h-73.143v39.286c0 2.235-1.82 4.063-4.063 4.063s-4.063-1.829-4.063-4.063v-39.286h-73.143v39.286c0 2.235-1.82 4.063-4.063 4.063s-4.063-1.829-4.063-4.063v-39.286h-73.143v39.286c0 2.235-1.82 4.063-4.063 4.063s-4.063-1.829-4.063-4.063v-39.286h-73.143v39.286c0 2.235-1.82 4.063-4.063 4.063s-4.063-1.829-4.063-4.063v-39.286h-147.635v92.103h32.638c2.243 0 4.063 1.82 4.063 4.063s-1.82 4.063-4.063 4.063h-32.638v73.143h32.638c2.243 0 4.063 1.82 4.063 4.063s-1.82 4.063-4.063 4.063h-32.638v73.143h32.638c2.243 0 4.063 1.82 4.063 4.063s-1.82 4.063-4.063 4.063h-32.638v73.143h32.638c2.243 0 4.063 1.82 4.063 4.063s-1.82 4.063-4.063 4.063h-32.638v73.143h32.638c2.243 0 4.063 1.82 4.063 4.063s-1.82 4.063-4.063 4.063h-32.638v73.143h32.638c2.243 0 4.063 1.82 4.063 4.063s-1.82 4.063-4.063 4.063h-32.638v73.143h32.638c2.243 0 4.063 1.82 4.063 4.063s-1.82 4.063-4.063 4.063h-32.638v73.143h32.638c2.243 0 4.063 1.82 4.063 4.063s-1.82 4.063-4.063 4.063h-32.638v66.373c0 6.729-5.461 12.19-12.19 12.19s-12.19-5.461-12.19-12.19v-747.683c0-6.729 5.461-12.19 12.19-12.19h794.713c6.729 0 12.19 5.461 12.19 12.19s-5.461 12.19-12.19 12.19zM173.487 723.48h83.302v-550.969h-83.302v550.969zM433.55 464.181c-10.906 14.255-19.749 29.59-26.51 45.601h-56.791v-337.27h83.302v291.669zM608.28 382.123c-2.698-0.106-5.388-0.284-8.094-0.284-26.145 0-51.525 4.795-75.207 13.857v-223.175h83.302v209.603zM791.138 332.004l-80.156 81.327c-1.024-0.634-2.105-1.187-3.145-1.796v-239.015h83.302v159.484zM970.801 247.694l-224.922 228.23c56.401 72.753 51.379 178.087-15.401 244.858-72.387 72.387-190.171 72.387-262.575 0-72.379-72.395-72.379-190.171 0-262.575 66.779-66.779 172.097-71.794 244.866-15.401l224.931-228.214c9.143-9.143 23.95-9.143 33.093-0.008 9.151 9.143 9.151 23.966 0.008 33.109zM697.393 491.309c-54.142-54.142-142.238-54.15-196.372 0-54.142 54.134-54.134 142.23 0 196.364s142.23 54.15 196.372 0c54.142-54.134 54.142-142.23 0-196.364zM605.964 609.353c-21.236 8.785-27.372 14.1-27.372 23.723 0 7.688 5.624 16.677 21.488 16.677 14.929 0 24.324-5.372 28.339-7.664 1.024-0.593 2.267-0.691 3.389-0.301 1.122 0.406 1.999 1.268 2.43 2.381l6.030 15.929c0.707 1.853-0.033 3.942-1.747 4.941-8.639 5.031-18.261 7.916-29.322 8.753v19.545c0 2.243-1.82 4.063-4.063 4.063h-14.937c-2.243 0-4.063-1.82-4.063-4.063v-20.992c-22.227-4.909-36.393-21.155-36.393-42.163 0-25.348 20.35-36.84 42.293-45.47 17.546-7.095 24.698-14.32 24.698-24.901 0-11.695-9.899-19.554-24.609-19.554-11.378 0-23.211 3.527-32.459 9.671-1.032 0.699-2.332 0.861-3.527 0.479s-2.129-1.308-2.544-2.487l-5.786-16.132c-0.61-1.715-0.016-3.625 1.471-4.681 8.452-6.030 21.91-10.273 35.165-11.191v-20.447c0-2.243 1.829-4.063 4.063-4.063h15.181c2.243 0 4.063 1.82 4.063 4.063v21.707c22.918 5.128 38.083 22.577 38.083 44.325-0.008 22.162-11.939 36.474-39.871 47.852z" />
<glyph unicode="&#xe615;" glyph-name="promotion" d="M628.629-22.448v105.733h-63.021v0.193h-93.677v105.669h-176.652v105.185h-166.433v39.392l-104.186-60.216 104.186-60.152v39.424h124.817v-105.701h127.492v0.484h49.224v-105.636h0.935v-0.193h155.699v-105.733h412.327v41.552zM442.854 753.272c44.582 0 81.17 32.655 87.971 75.27l32.913 46.355-37.039 21.791-8.8 43.647-37.168-15.28-52.351 34.944-19.632-30.559-48.031 8.736 10.251-42.777c-10.863-14.796-17.536-32.913-17.536-52.705 0-49.417 40.069-89.422 89.422-89.422zM491.853 567.143v126.912l-47.096-0.387-1.225-82.878-105.54-101.897 35.588-46.258zM418.581 224.8l17.44 148.413 32.945 24.112 13.765-114.501 78.075-156.601-17.665-7.414 8.929-21.469 70.532 29.625-2.708 6.447 0.226 0.064-80.299 168.98-1.16 29.85 130.877 47.096-44.969 125.268-1.837-0.677-83.007 155.537v80.299h-42.906l-0.064 0.161-0.097-0.161h-86.553v-148.123l24.306 24.531-0.226 86.424 62.247 0.967 7.221-13.442v-133.649l-0.741-0.129-92.774-78.784v-27.529h40.198l4.029-9.026-36.523-0.612-37.039-61.054-22.855-147.027-18.6 2.611-3.288-23.049 80.364-10.090 2.16 22.952zM539.787 622.299l66.341-124.301-66.341-23.822v148.123zM472.898 450.095l-3.062-1.064-0.484 1.064h3.546z" />
<glyph unicode="&#xe616;" glyph-name="routine" d="M512-32c265.104 0 480 214.896 480 480s-214.896 480-480 480-480-214.896-480-480 214.896-480 480-480zM347.984 621.104c3.776 2.192 7.904 3.232 11.984 3.232 8.288 0 16.368-4.304 20.816-11.984l138.016-126.624 248.576 248.576c4.688 4.688 10.832 7.024 16.976 7.024s12.288-2.336 16.976-7.024c9.376-9.36 9.376-24.576 0-33.936l-270.688-270.672c-0.096-0.096-0.224-0.128-0.32-0.208-1.376-1.344-2.896-2.576-4.64-3.584-0.656-0.384-1.376-0.544-2.064-0.848-0.672-0.304-1.296-0.576-1.984-0.832-2.608-0.928-5.28-1.552-7.952-1.552-2.768 0-5.44 0.64-8.016 1.568-0.64 0.224-1.232 0.464-1.856 0.752-2.576 1.168-4.992 2.64-7.056 4.688-0.016 0.016-0.032 0.016-0.048 0.032-0.064 0.064-0.080 0.16-0.144 0.224-1.376 1.408-2.64 2.96-3.664 4.736l-153.664 153.664c-6.64 11.456-2.72 26.144 8.752 32.768z" />
<glyph unicode="&#xe617;" glyph-name="sattendance" d="M426.683 529.598h145.408c7.439 41.074 29.301 76.456 60.252 102.167 0.129 0 0.291 0 0.485 0 25.776 0.873 59.379 7.665 91.236 31.242 3.913 2.878 7.697 5.983 11.352 9.185 45.666 40.492 70.731 107.762 74.127 200.259 0.809 24.515-18.241 45.149-42.691 46.087-26.714 1.358-45.149-18.176-46.087-42.756-2.717-69.89-19.47-118.5-48.706-140.654-6.339-4.884-13.098-8.215-19.599-10.446-0.194-0.065-0.485-0.097-0.679-0.162-19.243 18.37-45.86 27.329-63.842 27.329h-219.761c-40.298 0-72.348-40.459-73.060-84.864 67.141-16.397 119.211-70.699 131.566-137.387zM583.475 856.669c0-57.068-47.219-103.331-105.466-103.331s-105.466 46.263-105.466 103.331c0 57.068 47.219 103.331 105.466 103.331s105.466-46.263 105.466-103.331zM464.393 263.168c0 80.175-34.541 114.037-82.471 114.037h-111.126c59.961 8.765 105.919 59.315 105.919 120.57 0 67.271-55.628 121.863-124.418 121.863-68.661 0-124.321-54.593-124.321-121.863 0-61.255 45.957-111.773 105.951-120.57h-111.19c-47.995 0-86.934-51.358-86.934-104.431v-162.355h428.591v152.749zM617.757 497.774c0-61.255 45.99-111.773 105.886-120.57h-111.223c-48.027 0-84.67-51.358-84.67-104.431v-162.355h425.292v152.652c0 79.237-33.28 112.581-80.24 113.39-0.679 0-0.614 0.679-1.197 0.679h-111.19c59.994 8.765 105.983 59.315 105.983 120.602 0 67.271-55.692 121.863-124.386 121.863-68.629 0.032-124.256-54.56-124.256-121.831zM0.938 40.754h1022.124v-104.754h-1022.124v104.754z" />
<glyph unicode="&#xe618;" glyph-name="sbus" d="M116.16 71.712h52.8v-73.888h132v73.888h411.808v-73.888h131.968v73.888h42.208v45.76h-770.784zM116.16 823.232v-674.016h770.784v674.016c0 0-77.44 77.44-383.616 88-306.24 10.528-387.168-88-387.168-88zM239.36 823.232c17.472 0 31.648-14.24 31.648-31.712s-14.176-31.648-31.648-31.648c-17.504 0-31.712 14.144-31.712 31.616s14.208 31.744 31.712 31.744zM175.968 701.76h295.68v-286.88h-78.368l-40.384 54.592h-57.952l-45.344-54.592h-73.632v286.88zM293.44 414.88h-19.136l18.784 21.504 2.208-17.408-1.856-4.096zM351.552 414.88l-2.688 4.096 1.728 21.44 19.040-25.536h-18.080zM234.944 214.24c-36.48 0-65.984 29.568-65.984 65.984 0 36.512 29.504 66.016 65.984 66.016s66.016-29.536 66.016-66.016c0-36.416-29.536-65.984-66.016-65.984zM651.168 184.384h-295.712v35.136h295.712v-35.136zM651.168 249.472h-295.712v35.168h295.712v-35.168zM651.168 316.384h-295.712v35.2h295.712v-35.2zM844.736 280.224c0-36.416-29.536-65.984-66.016-65.984-36.416 0-65.952 29.568-65.952 65.984 0 36.512 29.536 66.016 65.952 66.016 36.48 0 66.016-29.536 66.016-66.016zM760.224 830.176c17.536 0 31.712-14.176 31.712-31.648s-14.176-31.616-31.712-31.616c-17.472 0-31.648 14.144-31.648 31.616s14.176 31.648 31.648 31.648zM520.928 701.76h295.648v-286.88h-58.624l-11.968 87.392h-43.904l-26.080-30.208-25.216 30.208-55.136-10.304-2.4-77.088h-72.32v286.88zM0 656h95.008v-126.72h-95.008v126.72zM915.136 663.040h95.008v-126.752h-95.008v126.752zM745.632 580.96c0-37.785-30.631-68.416-68.416-68.416s-68.416 30.631-68.416 68.416c0 37.785 30.631 68.416 68.416 68.416s68.416-30.631 68.416-68.416zM260.8 476.768c-2.528 22.848 8.384 36.672 12.608 41.024 3.904-23.616 24.288-41.76 49.024-41.76 23.424 0 42.976 16.288 48.32 38.112 4-7.136 10.816-21.76 9.184-37.408 41.536 0.352 21.088 47.84-8.064 53.024-0.192 2.432-0.384 4.864-0.928 7.2-1.728 15.008-15.168 45.536-53.632 44.608-33.28-0.768-40.512-25.728-42.272-40.96-1.184-3.744-1.92-7.648-2.176-11.712-43.2-7.52-38.432-51.392-12.064-52.128zM299.072 539.968c0 0 4.256-1.472 4.256-15.328 7.328-2.56 20.064 21.568 20.064 21.568v-19.008c8.16-2.176 33.696 0.704 33.696 0.704l0.96-0.8c0.032-0.416 0.128-0.768 0.128-1.216 0-19.68-16.032-35.744-35.744-35.744-19.424 0-35.232 15.616-35.648 34.976 7.072 2.56 12.288 14.848 12.288 14.848z" />
<glyph unicode="&#xe619;" glyph-name="setfee" d="M799.5 260.188c7.312-12.376 11-26.812 11-43.376 0-25.376-7.562-46.5-22.688-63.438s-36.938-26.938-65.5-29.938v-43.436h-36.376v43.25c-47.562 4.876-77 32.562-88.376 82.938l56.25 14.688c5.188-31.688 22.438-47.562 51.75-47.562 13.688 0 23.812 3.376 30.25 10.188s9.688 14.938 9.688 24.562c0 9.938-3.25 17.5-9.688 22.562-6.438 5.126-20.812 11.626-43.062 19.5-20 6.938-35.626 13.75-46.876 20.626-11.25 6.75-20.376 16.188-27.376 28.376-7.062 12.25-10.562 26.5-10.562 42.688 0 21.25 6.312 40.438 18.812 57.438 12.562 17 32.25 27.376 59.188 31.188v33.558h36.376v-33.562c40.626-4.876 67-27.876 79-69l-50.188-20.562c-9.75 28.188-24.812 42.312-45.312 42.312-10.25 0-18.5-3.126-24.688-9.438-6.25-6.312-9.376-13.938-9.376-22.938 0-9.126 3-16.126 9-21.062 6-4.876 18.812-10.938 38.5-18.126 21.562-7.876 38.562-15.376 50.812-22.376 12.318-6.998 22.068-16.748 29.442-29.060zM1024 272c0-176.75-143.25-320-320-320s-320 143.25-320 320 143.25 320 320 320 320-143.25 320-320zM960 272c0 141.188-114.812 256-256 256s-256-114.812-256-256 114.812-256 256-256 256 114.812 256 256zM512 848h384c17.688 0 32 10.75 32 24v48c0 13.25-14.312 24-32 24h-384c-17.688 0-32-10.75-32-24v-48c0-13.25 14.312-24 32-24zM512 720h384c17.688 0 32 10.75 32 24v48c0 13.25-14.312 24-32 24h-384c-17.688 0-32-10.75-32-24v-48c0-13.25 14.312-24 32-24zM32 80h377.376c-19.126 29.25-33.938 61.562-43.75 96h-333.626c-17.688 0-32-10.75-32-24v-48c0-13.25 14.312-24 32-24zM416 48h-384c-17.688 0-32-10.75-32-24v-48c0-13.25 14.312-24 32-24h384c17.688 0 32 10.75 32 24v48c0 13.25-14.312 24-32 24zM32 208h326.126c-3.876 20.812-6.126 42.126-6.126 64 0 10.812 0.626 21.438 1.626 32h-321.626c-17.688 0-32-10.75-32-24v-48c0-13.25 14.312-24 32-24zM512 592h46.25c44.438 20.376 93.688 32 145.75 32 52 0 101.312-11.626 145.75-32h46.25c17.688 0 32 10.75 32 24v48c0 13.25-14.312 24-32 24h-384c-17.688 0-32-10.75-32-24v-48c0-13.25 14.312-24 32-24zM32 592h384c17.688 0 32 10.75 32 24v48c0 13.25-14.312 24-32 24h-384c-17.688 0-32-10.75-32-24v-48c0-13.25 14.312-24 32-24zM32 336h326.126c6.25 34 17.438 66.188 32.75 96h-358.876c-17.688 0-32-10.75-32-24v-48c0-13.25 14.312-24 32-24zM32 464h377.376c11.376 17.5 24.376 33.75 38.626 48.876v23.124c0 13.25-14.312 24-32 24h-384.002c-17.688 0-32-10.75-32-24v-48c0-13.25 14.312-24 32-24z" />
<glyph unicode="&#xe61a;" glyph-name="student" d="M970.22 15.36c-91.812 40.428-144.773 74.015-241.009 105.718-7.168 2.355-15.749 6.963-18.616 12.513-7.823 14.848-13.312 30.659-18.883 46.326-3.543 9.953-6.676 19.374-19.456 24.166-3.42 1.29-6.554 7.045-6.472 10.732 0.655 36.311-12.247 62.689 3.666 76.943 29.020 26.092 22.426 58.040 36.946 73.871 14.5 15.831 50.422 128.082 43.54 142.5-6.881 14.377-31.171 7.639-25.498 14.623 22.323 27.525 29.204 83.128 28.058 128.717 3.973-8.253 6.164-17.224 6.164-27.034v-9.441l142.049 92.324-388.71 252.682-388.69-252.641 35.123-22.815v-51.118c-6.738-1.72-11.837-7.537-11.837-14.807 0-5.632 3.195-10.424 7.762-13.148l-31.068-177.029h77.804l-31.089 177.029c4.547 2.703 7.721 7.496 7.721 13.148 0 7.27-5.1 13.087-11.817 14.807v46.244l99.451-64.635v6.205c0.737-9.236 2.089-18.76 4.342-28.652 7.68-33.669 22.487-31.58 34.488-69.755 0.184-0.573 0.020-1.331 0.020-2.007v-2.048c-0.942-4.342-4.424-9.236-7.352-10.035-14.275-3.953-14.623-11.817-12.698-21.996 1.331-7.004 12.247-59.064 18.555-77.722 4.751-13.844 13.947-26.931 16.486-41.042 5.12-28.18 17.244-52.695 39.383-73.933 3.666-3.564 6.41-9.462 6.001-14.049-1.72-21.729-4.28-43.418-7.7-64.942-0.676-4.26-5.857-10.465-10.056-11.244-16.773-3.011-19.374-14.111-23.368-25.334-5.304-14.807-10.957-29.594-17.613-43.93-2.109-4.465-7.291-9.114-12.411-11.080-29.839-11.182-60.211-21.422-90.276-32.256-31.969-11.612-116.675-63.549-148.132-78.008-18.493-8.561-8.192-77.21-8.192-77.21 365.875 0 562.872 0 928.707 0 0 0 13.025 71.229-5.325 79.36z" />
<glyph unicode="&#xe61b;" glyph-name="subject" d="M5.075 201.4c0-63.862 51.953-115.813 115.813-115.813h837.494v51.471h-53.624v128.682h53.624v22.52h64.338v51.471h-38.605v128.675h38.605v51.471h-41.821v43.986l-63.548 119.030h66.766v69.213l-167.95 205.288h-592.547l-152.809-240.777c-26.134-21.263-43.213-53.28-43.213-89.517 0-63.464 51.346-115.059 114.679-115.69-42.612-17.116-72.86-58.684-72.86-107.346 0-35.333 16.241-66.619 41.27-87.88-59.026-5.261-105.612-54.417-105.612-114.785zM79.067 627.101c0 24 13.349 44.731 32.878 55.79h767.076v-120.133h-735.611c-35.475 0.001-64.343 28.874-64.343 64.343zM185.231 468.406h747.411v-128.675h-747.411c-35.475 0-64.343 28.852-64.343 64.333 0.001 35.491 28.868 64.342 64.343 64.342zM120.89 265.741h732.399v-128.682h-732.401c-35.473 0-64.339 28.852-64.339 64.342s28.868 64.34 64.34 64.34z" />
<glyph unicode="&#xe61c;" glyph-name="tattendance" d="M333.251 455.475c4.936 1.434 10.363 2.99 16.138 4.69v-133.489c35.799 2.744 77.148 4.526 124.232 5.059l31.007 241.848h-0.369l-14.868 29.573c-107.274-5.632-224.174-47.636-229.437-49.521-3.215-1.126-5.714-3.4-8.663-5.018-2.99-1.843-6.124-3.318-8.909-5.386-3.256-2.949-5.591-6.308-8.131-9.708-1.946-2.621-4.26-4.956-5.714-7.987-2.068-3.768-3.011-8.069-4.076-12.227-0.676-2.744-2.191-4.854-2.478-7.823l-22.057-199.004c29.143 6.574 67.83 13.087 118.784 17.777l14.541 131.215zM511.98 615.465c81.039 0 146.821 94.147 146.821 175.288 0 81.019-65.782 146.842-146.821 146.842-81.183 0-146.862-65.823-146.862-146.842 0-81.162 65.679-175.288 146.862-175.288zM743.322 334.193l-42.803 33.71 4.833-43.725c14.52-1.331 28.918-2.744 42.332-4.403l-4.362 14.418zM674.673 388.096l-84.357 66.007c-6.042-2.294-12.534-3.42-19.21-3.42-14.766 0-28.037 6.083-37.97 15.647l17.224-134.595c44.831-0.553 86.282-2.212 124.314-5.12v61.481zM519.68 573.583h-0.328l5.12-39.977c9.708 16.2 26.583 27.566 46.674 27.566 30.413 0 55.091-24.617 55.214-55.009l170.23-133.263 4.403-10.916 16.118-53.821c2.56-0.43 4.588-1.024 7.004-1.638l-22.139 199.004c-0.266 2.97-1.823 5.202-2.58 8.049-1.004 3.994-1.884 8.233-3.809 11.919-1.638 3.092-3.953 5.673-6.062 8.274-2.458 3.236-4.69 6.533-7.803 9.298-2.908 2.335-6.185 3.912-9.339 5.55-2.97 1.7-5.079 3.953-8.274 5.018-5.304 1.884-122.225 43.889-229.56 49.521l-14.868-29.573zM891.085 256.328c0 0-19.599 16.159-93.839 30.085l-20.48 68.424c-0.328 1.249-1.044 2.212-2.109 3.174l-175.657 137.462c1.27 3.277 2.15 6.738 2.15 10.486 0 16.486-13.394 29.88-30.044 29.88-16.507 0-29.921-13.394-29.921-29.88s13.435-29.962 29.921-29.962c8.294 0 15.729 3.4 21.115 8.786l173.036-135.557 18.022-60.334c-57.549 9.789-143.401 18.002-271.34 18.002-317.624 0-379.146-50.524-379.146-50.524v-103.076h758.292v103.035zM0 86.917l75.817-128.512h872.284l75.899 128.512v43.213h-1024z" />
<glyph unicode="&#xe61d;" glyph-name="teacher" d="M949.33 120.463l-78.623 295.997c-7.987 8.315-17.347 15.135-28.14 20.705-54.497 27.812-144.384 50.975-201.462 72.868-4.239 1.618-9.277 4.895-11.039 8.684-4.628 10.24-7.803 21.115-11.121 31.908-2.109 6.922-3.932 13.332-11.53 16.65-2.068 0.901-3.891 4.895-3.871 7.455 0.451 25.006-5.386 51.323 13.23 73.052 0.512 0.655 0.84 1.679 1.188 2.499 10.015 21.955 11.817 46.879 25.723 67.318 0.266 0.369 0.471 1.085 0.471 1.741 1.659 15.606 3.4 30.986 4.69 46.653 0.123 1.905-1.638 5.325-3.256 5.837-7.762 2.806-7.291 8.97-7.25 15.176 0 30.433 0 27.095-0.041 57.467 0 17.654-5.181 33.403-18.555 45.404-15.196 13.599-30.781 26.849-46.387 40.079-7.516 6.369-8.172 11.325-1.188 18.33 3.154 3.052 7.229 5.366 10.793 7.926-0.84 1.167-1.556 2.294-2.396 3.564-4.71 0-9.523 0.676-14.111-0.143-17.142-2.867-34.57-5.202-51.548-9.196-32.297-7.66-63.754-17.797-90.071-39.465-18.002-14.889-32.358-32.051-34.161-56.504-0.901-12.739-0.799-25.6-0.86-38.441-0.102-20.91 0.061-8.11-0.369-29-0.061-3.379-1.987-8.909-4.342-9.708-8.376-2.724-8.745-8.172-7.516-15.196 0.86-4.833 0.164-9.912 1.29-14.602 2.826-13.046 6.021-26.071 9.789-38.912 2.806-9.605 8.172-18.596 9.708-28.324 3.011-19.476 10.24-36.332 23.409-51.077 2.15-2.396 3.809-6.431 3.543-9.605-1.085-14.971-2.621-29.962-4.567-44.749-0.41-2.99-3.502-7.311-6.021-7.762-9.953-2.109-11.469-9.789-13.804-17.531-3.113-10.117-6.533-20.357-10.424-30.269-1.29-3.031-4.321-6.349-7.373-7.639-17.715-7.66-181.187-65.987-199.885-75.899-10.936-5.98-21.217-12.472-29.88-20.603l-78.705-294.687c18.514 0 75.981-6.083 96.829-15.565v219.177c0 44.872 36.516 81.408 81.408 81.408h242.831l8.376 53.862-26.112 25.887 10.65 26.030h46.715l10.65-26.030-26.112-25.887 8.376-53.862h242.831c44.872 0 81.408-36.516 81.408-81.408v-219.177c20.828 9.482 78.275 15.565 96.809 15.565zM771.092-20.644c24.289 0 43.95 19.681 43.95 43.868v300.851c0 24.289-19.681 43.971-43.95 43.971h-518.185c-24.289 0-43.95-19.702-43.95-43.971v-300.851c0-24.187 19.681-43.868 43.95-43.868h-77.312c0-34.488 14.93-43.356 33.239-43.356h606.31c18.309 0 33.239 8.888 33.239 43.356h-77.292z" />
<glyph unicode="&#xe61e;" glyph-name="template" d="M384 768h128.001v-63.999h-128.001v63.999zM576 768h128.001v-63.999h-128.001v63.999zM896.001 768v-256h-192v63.999h128.001v128.001h-64.001v63.999h128.001zM320.001 576h128.001v-63.999h-128.001v63.999zM512.001 576h128.001v-63.999h-128.001v63.999zM192 704v-128.001h63.999v-63.999h-127.999v256h192v-63.999h-128.001zM384 384h128.001v-63.999h-128.001v63.999zM576 384h128.001v-63.999h-128.001v63.999zM896.001 384v-256h-192v63.999h128.001v128.001h-64.001v63.999h128.001zM320.001 192h128.001v-63.999h-128.001v63.999zM512.001 192h128.001v-63.999h-128.001v63.999zM192 320v-128.001h63.999v-63.999h-127.999v256h192v-63.999h-128.001zM960.001 896.001h-896.001v-896.001h896.001v896.001zM1024 960v0-1024h-1024v1024h1024z" />
<glyph unicode="&#xe800;" glyph-name="systemadmin" d="M427.409 865.454c0-12.267-11.086-22.211-24.762-22.211s-24.762 9.944-24.762 22.211c0 12.267 11.086 22.211 24.762 22.211s24.762-9.944 24.762-22.211zM557.772 921.931c0-21.025-18.948-38.069-42.321-38.069s-42.321 17.044-42.321 38.069c0 21.025 18.948 38.069 42.321 38.069s42.321-17.044 42.321-38.069zM662.323 864.153c0-12.267-11.064-22.211-24.712-22.211s-24.712 9.944-24.712 22.211c0 12.267 11.064 22.211 24.712 22.211s24.712-9.944 24.712-22.211zM774.678 872.407c0-21.025-18.948-38.069-42.321-38.069s-42.321 17.044-42.321 38.069c0 21.025 18.948 38.069 42.321 38.069s42.321-17.044 42.321-38.069zM309.751 832.938c23.461 0 42.421 17.108 42.421 38.069 0 21.11-18.959 38.119-42.421 38.119-23.261 0-42.271-17.008-42.271-38.119-0.050-20.96 18.959-38.069 42.271-38.069zM326.159 830.937l36.868-203.249c0 0 5.052 5.803 14.357 14.107 38.019 33.967 147.272 109.253 276.735-1.801 4.552-3.902 9.104-7.954 13.657-12.306l50.825 197.997c0 0-5.653 26.163-33.917 15.257l-57.928-52.175 4.902 53.176c0 0-8.004 11.956-18.409 2.251l-35.167-44.822-45.722 72.035c0 0-12.556 12.856-33.867 0l-40.37-63.631c-1.801-0.8-4.052-1.851-6.603-3.202l-27.864 39.669c0 0-7.754 12.206-17.459-0.8l3.202-57.928-57.178 55.427c0 0-17.659 7.153-26.063-10.005zM515.452-64v0c-6.153 0-12.406 0.050-18.609 0.2-8.004 0.4-182.389 9.655-297.695 60.88-8.504 3.152-28.814 15.508-29.564 59.679 0.25 7.904 6.603 170.133 58.429 247.021 2.301 3.152 19.209 25.112 56.928 39.669 52.826 16.058 103.25 39.619 109.353 50.825l16.108 61.28 22.661-59.929c8.404-21.611 40.32-83.241 75.537-83.241 24.462 0 53.326 30.465 81.39 85.742l37.268 73.486 1.601-79.039c2.251-3.051 11.606-12.906 42.971-23.962 18.409-5.753 114.606-38.019 134.616-82.49 2.551-5.753 59.679-137.717 45.772-258.176-0.25-4.952-3.902-20.66-29.214-36.768l-3.102-1.551c-5.153-2.301-129.563-53.626-304.449-53.626zM215.305 34.898c108.303-48.324 281.287-57.478 282.988-57.578 5.353-0.1 11.306-0.15 17.108-0.15 155.826 0 272.233 43.821 287.090 49.674 5.753 3.852 8.254 6.753 9.154 7.954 11.306 109.804-42.221 233.264-42.721 234.515-9.104 20.21-71.085 47.923-110.004 60.279-21.36 7.454-36.368 15.458-46.923 23.011-32.466-54.727-66.432-81.39-103.3-81.39-48.824-0.050-83.091 48.274-100.699 80.99-29.614-21.060-77.438-37.919-109.604-47.623-25.012-9.705-36.718-24.512-36.818-24.662-44.622-66.232-50.725-222.008-50.775-223.559 0.2-12.856 3.051-19.409 4.502-21.46zM374.483 526.388c2.151-13.857 8.004-19.91 11.456-22.461 8.504-70.084 68.784-142.72 123.51-142.72 62.881 0 122.66 76.337 131.964 142.72 3.602 2.551 9.405 8.604 11.506 22.461 0 0 13.407 48.073-4.402 42.871 1.401 4.252 3.602 11.406 5.553 20.26-129.463 111.104-238.717 35.767-276.735 1.851 1.051-7.204 2.251-14.757 3.852-23.061-21.21 10.005-6.703-41.92-6.703-41.92z" />
<glyph unicode="&#xe801;" glyph-name="school" d="M993.714 152.51v0 209.895l-27.607 165.505h-263.004l85.445-63.906v-101.244l-55.159 40.809v-20.090h-16.373v-230.915h-17.056v253.027h16.373v30.395h-25.284l-191.718 141.096-185.158-144.513h-22.441v-30.45h18.45v-249.583h-17.986v227.471h-18.45v12.737l-39.196-32.554v103.294l78.53 64.398h-272.024l-27.607-165.505v-209.868h-13.448v-79.322h1024v79.322h-30.286zM134.755 193.456h-91.486v50.075h91.486v-50.075zM134.755 273.434h-91.486v50.021h91.486v-50.021zM172.694 193.456v50.075h91.458v-50.075h-91.458zM172.721 273.434v50.021h91.458v-50.021h-91.458zM502.83 515.063c20.036 0 36.244-16.264 36.244-36.244s-16.209-36.244-36.244-36.244c-20.008 0-36.244 16.264-36.244 36.244s16.236 36.244 36.244 36.244zM650.103 152.564h-20.090v228.455h-259.861v-228.455h-18.204v249.583h17.494v11.753h269.291v-8.309h11.371v-253.027zM825.093 198.649h-91.458v50.075h91.458v-50.075zM825.093 278.654h-91.458v50.021h91.458v-50.021zM954.518 198.649h-91.458v50.075h91.458v-50.075zM954.518 278.654h-91.458v50.021h91.458v-50.021zM500.069 662.747h-5.576v149.378h11.671v-2.843c12.792-5.576 43.761-16.154 61.2 2.761 22.332 24.19 61.446 0 61.446 0v-68.935c0 0-31.652 26.049-61.446 0-22.66-19.79-49.583-9.485-61.2-3.389v-76.972h-6.041l271.368-202.952v-57.701l-274.484 203.007-244.499-203.007v57.701l247.561 202.952z" />
<glyph unicode="&#xe900;" glyph-name="holiday" d="M0.628-34.776c0.735-4.112 2.399-14.288 3.613-14.288 327.292 0 654.569 0 981.872 0 1.956 17.912 10.757 26.746-2.624 34.898-9.535 5.828-22.125 7.747-33.129 10.723-0.319 34.336-3.028 38.781-33.673 50.235-61.153 22.897-122.745 45.010-183.288 69.444-32.567 13.156-61.573 9.869-91.048-6.926-35.839-20.431-72.682-39.1-108.087-60.243-28.17-16.81-53.676-16.132-82.154 0.296-48.882 28.182-97.929 56.063-146.988 83.912-10.030 5.615-20.213 11.334-30.131 16.9l-18.219 10.18c-2.545 1.436-4.872 2.938-7.163 4.479-47.615 26.937-95.238 53.875-142.835 80.849-6.717 3.812-13.381 7.905-20.528 10.738-14.378 5.686-30.539 0.105-38.185-12.417-7.792-12.732-5.843-29.984 5.371-40.127 5.019-4.55 11.233-7.875 17.177-11.285 27.619-15.794 55.389-31.296 82.975-47.143 5.352-3.077 10.067-7.275 12.050-8.744-11.45-14.029-22.68-25.506-31.225-38.747-18.201-28.163-35.554-56.888-52.121-86.044-7.208-12.65-15.674-19.171-30.674-17.912-11.064 0.963-22.477 0.858-33.455-0.716-14.614-2.084-20.15-13.347-17.533-28.062zM589.733 11.040c23.193 13.137 46.491 23.931 69.931 36.626 25.558 13.804 51.221 15.536 78.998 3.253 34.565-15.288 70.164-28.684 105.324-42.645 6.034-2.417 11.964-1.016 17.964-3.516-0.42-1.379-0.825-0.086-1.226-0.086-93.076 0-186.117 0-282.851 0 5.315 0 8.133 4.284 11.859 6.368zM200.418 123.186c68.912-39.062 138.139-76.097 207.373-115.332-0.322-1.784-0.663-3.186-0.989-3.186-92.214 0-184.408 0-276.689 0 3.336 0.004 47.679 90.055 70.306 118.517zM128.036 287.178c-1.739-30.213 20.386-55.557 50.048-57.289 29.415-1.732 54.62 21.255 56.281 51.341 1.627 29.456-21.623 54.718-51.551 55.94-28.392 1.169-53.125-21.409-54.778-49.992zM997.151 419.65c3.797 0 7.605 0.802 11.192 2.462 9.535 4.374 15.656 13.909 15.656 24.404 0 274.924-223.658 498.556-498.552 498.556-274.931-0.004-498.582-223.636-498.582-498.556 0-10.476 6.106-19.958 15.622-24.332 9.509-4.475 20.738-2.867 28.695 3.92 0.48 0.401 49.418 41.405 107.202 41.405 32.676 0 62.694-13.452 89.204-39.969 5.090-5.056 12.054-8.692 19.179-7.856 7.189 0.056 14.066 2.976 19.085 8.133 0.446 0.457 47.537 45.674 105.339 45.674 30.824 0 54.523-13.092 90.347-38.605v-257.383c0-0.911 5.877-1.54 9.49-1.54 7.89 0 17.039 2.17 26.465 6.645 5.633 2.661 17.792 4.932 17.792 7.451v244.793c17.912 25.513 56.551 38.605 87.375 38.605 58.095 0 102.697-45.288 103.083-45.674 5.022-5.161 11.492-8.081 18.699-8.133 6.84-0.439 13.928 2.781 18.995 7.852 26.518 26.521 56.453 39.973 89.125 39.973 57.514 0 106.216-40.633 107.142-41.401 4.955-4.224 11.165-6.424 17.447-6.424zM83.475 497.924c20.378 179.019 147.501 325.643 315.946 375.496 37.391 34.801 80.179 54.279 126.029 54.279 11.563 0 22.912-1.278 34.059-3.711-10.918 2.309-22.042 3.523-33.328 3.523-45.775 0-87.382-19.599-124.728-54.313-0.184-0.052-0.36-0.086-0.543-0.139-76.715-71.397-131.257-206.979-141.56-369.6-0.322 0.176-0.63 0.379-0.937 0.551-24.838 13.366-51.585 18.737-80.029 18.737-36.795-0.034-69.905-12.357-94.908-24.823zM311.994 497.857c0.251 0.139 0.48 0.281 0.735 0.427-1.076-15.603-2.256-29.22-2.256-45.805 0 16.443 0.577 29.951 1.522 45.378zM411.194 527.189c-38.369 0-72.191-10.446-96.962-24.614 12.953 188.692 80.516 342.741 187.309 367.542v-368.296c-35.824 16.84-59.324 25.367-90.347 25.367zM642.663 528.677c-31.030 0-69.459-10.015-87.375-26.866v368.311c89.211-24.883 171.774-179.622 184.614-368.959-0.472 0.27-0.84 0.543-1.312 0.813-24.853 14.509-56.989 26.701-95.928 26.701zM792.574 500.863v0c0.963-16.555 1.54-31.566 1.54-48.384 0 16.821-0.577 31.829-1.54 48.384zM872.479 521.245c-28.407 0-55.1-3.883-79.905-17.196-10.322 161.841-62.536 296.798-138.753 368.277 167.227-50.524 293.278-196.946 313.57-375.098-25.011 12.462-58.125 24.018-94.912 24.018zM542.938 165.396c-11.582-5.495-22.515-7.875-33.395-7.875-12.211 0-24.344 3.883-37.181 11.51-50.981 30.314-103.405 61.12-155.481 89.56-10.375 5.69-21.832 14.764-27.908 14.764-0.341 0-0.675 0-1.016 0-32.012 0-52.057-23.073-52.023-49.853 0.037-21.45 11.758-36.158 29.583-46.112 60.805-33.987 121.696-68.571 181.983-103.435 12.987-7.504 25.532-11.649 38.062-11.649 12.29 0 24.561 3.467 37.274 10.761 40.269 23.159 81.202 45.007 121.857 67.484 14.258 7.875 28.511 11.844 43.099 11.844 11.72 0 23.635-2.605 35.933-7.822 49.066-20.817 98.776-40.071 148.352-59.647 7.875-3.077 16.372-5.791 24.718-6.229 0.525-0.015 1.049-0.034 1.537-0.034 12.511 0 21.971 7.995 25.73 19.557 4.217 12.942 0.39 27.41-10.127 34.707-4.842 3.358-10.689 5.438-16.285 7.59-59.407 22.706-119.316 44.186-178.123 68.357-13.714 5.652-26.832 8.328-39.744 8.328-15.776 0-29.737-3.984-45.618-11.477-26.416-12.489-60.962-23.126-78.874-35.228v-4.618h-8.992c-1.106 0-2.26 0.056-3.362-0.483zM546.297 167.877h6.001v2.624c-1.994-0.892-4.025-1.694-6.001-2.624z" />
<glyph unicode="&#xe901;" glyph-name="visitorinfo" d="M480.163 960c0-34.583 0-122.204 0-156.877 22.368 0 41.262 0 63.628 0 0 34.67 0 122.292 0 156.877-22.366 0-41.305 0-63.628 0zM182.276 810.374c24.519-24.519 86.566-86.566 111.043-111 15.818 15.776 29.223 29.223 45.086 44.909-24.519 24.564-86.566 86.611-111.088 111.132-15.776-15.818-29.223-29.266-45.041-45.041zM685.64 744.329c15.776-15.688 29.223-29.133 45.041-44.909 24.519 24.564 86.479 86.524 111 111-15.776 15.731-29.266 29.090-45.041 44.996-24.476-24.521-86.481-86.569-111-111.088zM789.433 557.615c0-22.455 0-41.35 0-63.761 34.627 0 122.337 0 156.964 0 0 22.411 0 41.307 0 63.761-34.627 0-122.337 0-156.964 0zM77.648 557.615c0-22.455-0.045-41.35-0.045-63.673 34.627-0.045 122.382-0.045 157.007-0.132 0 22.411 0 41.307 0 63.761-34.625 0.045-122.38 0.045-156.962 0.045zM652.111 298.441h-280.091c-50.008 0-91.050-46.009-91.050-102.255v-260.186h462.235v260.186c-0.043 56.246-40.998 102.255-91.093 102.255zM511.89 343.57c87.709 0 158.415 70.748 158.415 158.107 0 87.447-70.703 158.237-158.415 158.237-87.227 0-157.93-70.703-157.93-158.237 0.043-87.314 70.658-158.107 157.93-158.107z" />
<glyph unicode="&#xe902;" glyph-name="reset_password" d="M559.076 659.773c0 130.473-106.127 236.609-236.607 236.609-130.49 0-236.607-106.136-236.607-236.609v-119.138c-53.118-57.492-85.862-134.104-85.862-218.541v-261.183c0-33.85 27.446-61.294 61.331-61.294h522.306c33.85 0 61.294 27.444 61.294 61.294v261.167c0 84.454-32.745 161.085-85.854 218.577l-0.002 119.119zM368.031 300.218v-74.81c0-25.17-20.404-45.57-45.562-45.57-25.168 0-45.57 20.404-45.57 45.57v74.81c-18.554 13.924-30.726 35.902-30.726 60.882 0 42.124 34.156 76.267 76.298 76.267s76.298-34.143 76.298-76.267c-0.004-24.98-12.186-46.954-30.739-60.882zM456.005 615.333c-40.732 18.592-85.862 29.213-133.536 29.213-47.682 0-92.805-10.621-133.534-29.213v44.44c0 73.634 59.881 133.536 133.534 133.536 73.645 0 133.536-59.902 133.536-133.536v-44.44zM851.811 780.082c-95.083 0-172.185-77.091-172.185-172.212 0-67.597 39.283-125.481 95.953-153.676v-285.999c0-58.547 47.472-106.023 106.021-106.023 25.632 0 46.436 20.766 46.436 46.402v345.62c56.633 28.185 95.962 86.077 95.962 153.676 0.006 95.121-77.101 172.212-172.187 172.212zM851.811 638.492c-22.346 0-40.461 18.115-40.461 40.442s18.115 40.451 40.461 40.451 40.459-18.124 40.459-40.451-18.113-40.442-40.459-40.442z" />
<glyph unicode="&#xe903;" glyph-name="syllabus" d="M1011.462 583.145c-10.809 13.449-27.102 21.299-44.351 21.299h-56.889c0 31.425-25.463 56.889-56.889 56.889h-56.889v56.889c0 31.425-25.463 56.889-56.889 56.889h-28.444v113.778c0 15.701-12.766 28.444-28.444 28.444h-568.889c-15.724 0-28.444-12.743-28.444-28.444v-113.778h-28.444c-31.425 0-56.889-25.463-56.889-56.889v-682.667c0-31.425 25.463-56.889 56.889-56.889h796.444c26.67 0 49.789 18.523 55.501 44.555l113.778 512c3.777 16.839-0.341 34.475-11.15 47.923zM85.333 35.556h-28.444v682.667h28.444v-682.667zM682.667 661.333c-31.425 0-56.889-25.463-56.889-56.889h-341.333c-26.67 0-49.789-18.523-55.546-44.555 0 0-115.075-520.238-115.075-524.334h-0.046v853.333h568.889v-227.556zM739.556 661.333h-28.444v56.889h28.444v-56.889zM565.089 762.778h-339.422c-15.701 0-28.444 12.743-28.444 28.444s12.743 28.444 28.444 28.444h339.422c15.701 0 28.444-12.743 28.444-28.444s-12.743-28.444-28.444-28.444zM565.089 647.111h-339.422c-15.701 0-28.444 12.743-28.444 28.444s12.743 28.444 28.444 28.444h339.422c15.701 0 28.444-12.743 28.444-28.444s-12.743-28.444-28.444-28.444z" />
<glyph unicode="&#xe904;" glyph-name="studentreport" d="M300.8 736h-86.4c-12.8 0-19.2-9.6-19.2-19.2v-86.414c0-12.8 9.6-19.2 19.2-19.2h86.4c12.8 0 19.2 9.6 19.2 19.2v86.414c0 9.6-6.414 19.2-19.2 19.2zM368 700.786h460.8v-60.8h-460.8v60.8zM300.8 512h-86.4c-12.8 0-19.2-9.6-19.2-19.214v-86.414c0-12.786 9.6-19.2 19.2-19.2h86.4c12.8 0 19.2 9.6 19.2 19.2v86.414c0 9.614-6.414 19.214-19.2 19.214zM300.8 288.014h-86.4c-12.8 0-19.2-9.629-19.2-19.229v-86.386c0-12.8 9.6-19.2 19.2-19.2h86.4c12.8 0 19.2 9.6 19.2 19.2v86.386c0 9.6-6.414 19.229-19.2 19.229zM304 179.2c0-3.214-3.2-3.214-3.2-3.214h-86.4c-3.214 0-3.214 3.214-3.214 3.214v86.414c0 3.2 3.214 3.2 3.214 3.2h86.4c3.2 0 3.2-3.2 3.2-3.2v-86.414zM595.2 476.786h-224v-60.786h204.8c-3.2 9.6-3.2 38.4 19.2 60.786zM368 252.8v-60.8h224c0 0-19.2 28.8-22.357 60.8h-201.643zM928 960h-832c-54.414 0-96-41.6-96-96v-831.986c0-54.414 41.586-96.014 96-96.014h832c54.4 0 96 41.6 96 96.014v831.986c0 54.4-41.6 96-96 96zM959.971 32.014c0-19.229-6.371-32-35.2-32h-828.771c-19.2 0-32 12.8-32 32v831.986c0 19.214 12.8 32 32 32h832c19.214 0 31.971-12.8 31.971-32v-831.986zM1017.6 32.014c-6.4 12.786 0 9.6-12.8 12.786-54.429 22.4-102.4 32-156.829 51.2-3.214 3.229-19.2 12.8-19.2 38.414 0 9.6-3.214 15.986-15.986 15.986-3.229 0-3.229 0-3.229 9.6-3.229 25.614-3.229 38.4-3.229 41.6s3.229 6.386 6.414 9.6c19.2 25.614 22.371 57.586 25.586 73.6 0 0 3.214-3.229 6.386 6.386 3.214 12.786 6.4 16.014 9.6 28.8 3.214 9.6 6.4 32-6.386 32-6.386-3.2-6.386 0-6.386 9.6v70.429c-3.214 25.6-15.986 41.586-28.8 47.986-16.014 12.8-22.4 15.986-32 22.4-6.386 6.386-6.386 12.8 0 22.371 3.214 3.214 9.6 6.4 12.8 9.614h-3.214c-3.229 0-44.829-6.4-60.814-9.614-31.971-6.386-60.8-15.986-86.414-38.4-15.986-12.8-32-31.986-32-54.4 0-12.8 0-51.2 0-70.414 0-6.4 0-9.629-6.357-6.4-16 3.257-6.386-25.586-6.386-28.814 3.186-12.786 6.386-19.2 9.6-32 3.2-9.6 6.386-6.371 6.386-6.371 3.214-19.2 12.8-54.429 25.6-73.557 3.2-3.229 3.2-6.414 3.2-9.614-3.143-12.8-3.143-28.814-3.143-41.586 0-3.229-3.214-6.414-6.4-6.414-12.8 0-12.8-9.6-12.8-15.986 0-19.2-12.8-35.214-19.243-38.4-25.586-19.229-121.586-48-153.571-57.6-22.386-6.386-25.6-12.8-32-22.4l-15.986-35.214c121.6 0 515.171 0 601.557 0l16.043 44.814z" />
<glyph unicode="&#xe905;" glyph-name="role" d="M1012.293 164.371c-3.311 3.004-8.157 3.481-12.014 1.16-48.193-28.158-154.477-70.344-264.755 18.397l-0.068-0.068c-26.11 25.871-61.914 41.947-101.676 41.947-51.401 0-96.25-27.032-121.848-67.511-25.632 40.479-70.412 67.511-121.814 67.511-39.66 0-75.6-16.11-101.676-41.947l-0.034 0.068c-110.209-88.707-216.527-46.555-264.72-18.397-3.823 2.253-8.703 1.843-12.014-1.16-3.379-2.969-4.369-7.748-2.526-11.809 111.301-251.614 392.746-214.684 392.746-214.684 46.213 3.789 86.352 29.148 110.073 66.078 23.687-36.896 63.791-62.187 110.141-66.078 0 0 281.411-36.93 392.746 214.684 1.775 4.13 0.785 8.908-2.56 11.809zM781.874 638.451c0 0 0 257.28 0 258.236 0 34.95-120.824 63.313-269.84 63.313-148.982 0-269.806-28.363-269.806-63.313 0-0.956 0-258.236 0-258.236 34.302-27.373 142.019-47.408 269.806-47.408s235.504 20.035 269.84 47.408zM512.034 335.299c232.159 0 420.256 44.814 420.256 100.277 0 30.854-58.535 58.432-150.381 76.795v19.284c-34.336-27.373-142.053-47.374-269.84-47.374s-235.504 20.001-269.806 47.374v-19.284c-91.881-18.397-150.381-45.975-150.381-76.795-0.102-55.326 188.028-100.277 420.153-100.277z" />
<glyph unicode="&#xe906;" glyph-name="permission" d="M507.593 960c-144.079 0-277.227-62.471-385.631-154.368-55.516-47.086-74.299-124.751-46.285-191.934l66.158-158.663c63.241 138.95 203.217 235.558 365.758 235.558 166.516 0 309.344-101.288 370.245-245.591l70.485 169.080c27.886 66.927 9.488 144.143-45.579 191.325-110.006 94.332-246.713 154.592-395.15 154.592zM587.309 779.541h-46.413v-48.689h-64.811v48.689h-48.753v64.908h48.753v48.721h64.811v-48.721h46.413v-64.908zM685.872 593.633c-0.032-0.032-0.096-0.096-0.096-0.128 0 0-115.808-181.613-314.409-247.45-7.981-2.628-16.732 0.321-21.476 7.34-4.68 6.956-4.231 16.219 1.218 22.629 8.75 10.289 17.629 21.796 25.45 33.88 5.738 8.879 5.417 20.386-0.801 28.944s-17.084 12.372-27.341 9.616c-61.029-16.411-159.753-62.375-192.415-190.075 15.514-180.587 166.965-322.39 351.558-322.39 194.979 0 353.001 158.022 353.001 353.033 0.032 129.847-70.196 243.315-174.689 304.6z" />
<glyph unicode="&#xe907;" glyph-name="noticemain" d="M963.465 364.501l-179.843 543.671c-13.083 39.549-55.896 61.081-95.45 47.998-33.209-10.989-53.711-42.947-51.681-76.328l-312.862-258.892c-2.544-0.49-5.075-1.13-7.595-1.966l-175.078-57.913c-31.951-10.568-49.343-45.154-38.775-77.108l4.044-12.221-27.151-8.977c-17.068-5.646-26.356-24.125-20.713-41.188l32.735-98.959c5.646-17.068 24.122-26.359 41.188-20.708l27.149 8.98 4.047-12.218c10.565-31.951 45.154-49.345 77.105-38.78l8.618 2.85c13.364-86.444 43.925-205.382 113.641-315.525 4.422-6.982 12.108-11.216 20.37-11.216h179.521c6.251 0 12.253 2.421 16.749 6.765l1.794 1.733c4.601 4.44 7.25 10.525 7.36 16.915 0.11 6.395-2.322 12.563-6.762 17.164-103.638 107.296-135.746 257.333-145.669 341.468l392.265-20.558c18.271-28.006 53.783-41.437 86.993-30.448 39.546 13.091 61.079 55.915 48.001 95.458z" />
<glyph unicode="&#xe908;" glyph-name="markpercentage" d="M435.048 959.993c-5.743-0.157-11.037-3.134-14.154-7.958l-50.465-75.7h-171.872c-9.616 0-17.414-7.798-17.414-17.414v-174.136c0-9.616 7.798-17.414 17.414-17.414h174.136c9.616 0 17.414 7.798 17.414 17.414v137.39l-34.827-52.241v-67.735h-139.309v139.309h131.236l-48.978-73.465-21.405 42.813c-4.197 8.655-14.613 12.27-23.268 8.073s-12.27-14.613-8.073-23.268c0.063-0.125 0.122-0.251 0.188-0.376l34.827-69.654c4.301-8.602 14.76-12.092 23.366-7.791 2.71 1.355 5.019 3.392 6.701 5.914l139.309 208.963c5.45 7.927 3.444 18.768-4.482 24.219-3.040 2.086-6.659 3.159-10.344 3.058v0zM512.002 806.673c-9.616 0-17.414-7.798-17.414-17.414v-34.827c0-9.616 7.798-17.414 17.414-17.414h313.445c9.616 0 17.414 7.798 17.414 17.414v34.827c0 9.616-7.798 17.414-17.414 17.414h-313.445zM198.557 632.415c-9.616 0-17.414-7.798-17.414-17.414v-174.136c0-9.616 7.798-17.414 17.414-17.414h174.136c9.616 0 17.414 7.798 17.414 17.414v174.136c0 9.616-7.798 17.414-17.414 17.414h-174.136zM215.97 597.588h139.309v-139.309h-139.309v139.309zM512.002 562.89c-9.616 0-17.414-7.798-17.414-17.414v-34.827c0-9.616 7.798-17.414 17.414-17.414h313.445c9.616 0 17.414 7.798 17.414 17.414v34.827c0 9.616-7.798 17.414-17.414 17.414h-313.445zM198.557 388.754c-9.616 0-17.414-7.798-17.414-17.414v-174.136c0-9.616 7.798-17.414 17.414-17.414h174.136c9.616 0 17.414 7.798 17.414 17.414v174.136c0 9.616-7.798 17.414-17.414 17.414h-174.136zM215.97 353.926h139.309v-139.309h-139.309v139.309zM512.002 318.977c-9.616 0-17.414-7.798-17.414-17.414v-34.827c0-9.616 7.798-17.414 17.414-17.414h313.445c9.616 0 17.414 7.798 17.414 17.414v34.827c0 9.616-7.798 17.414-17.414 17.414h-313.445zM198.557 144.963c-9.616 0-17.414-7.798-17.414-17.414v-174.136c0-9.616 7.798-17.414 17.414-17.414h174.136c9.616 0 17.414 7.798 17.414 17.414v174.136c0 9.616-7.798 17.414-17.414 17.414h-174.136zM215.97 110.136h139.309v-139.309h-139.309v139.309zM512.002 75.309c-9.616 0-17.414-7.798-17.414-17.414v-34.827c0-9.616 7.798-17.414 17.414-17.414h313.445c9.616 0 17.414 7.798 17.414 17.414v34.827c0 9.616-7.798 17.414-17.414 17.414h-313.445z" />
<glyph unicode="&#xe909;" glyph-name="markmain" d="M749.657 140.759l37.261 37.261v-198.576c0-23.965-19.506-43.458-43.471-43.458h-658.077c-23.965 0-43.471 19.492-43.471 43.458v869.169c0 23.965 19.506 43.458 43.471 43.458h139.128l-5.020-22.652c-0.424-1.901-0.629-3.639-0.629-5.28v-99.336c0-13.693 11.135-24.827 24.827-24.827h341.452c13.706 0 24.841 11.135 24.841 24.827v99.336c0 1.655-0.219 3.379-0.643 5.28l-5.020 22.652h139.141c23.965 0 43.471-19.492 43.471-43.458v-295.204l-37.275-37.261v332.465c0 3.42-2.79 6.21-6.21 6.21h-96.217v-90.021c0-34.225-27.836-62.088-62.088-62.088h-341.466c-34.238 0-62.088 27.85-62.088 62.088v90.021h-96.203c-3.42 0-6.21-2.79-6.21-6.21v-869.169c0-3.42 2.79-6.224 6.21-6.224h658.077c3.42 0 6.21 2.804 6.21 6.224v161.315zM264.139 763.298h300.525c12.078 0 21.859 9.78 21.859 21.859v87.422c0 12.078-9.78 21.859-21.859 21.859h-81.95c0 36.208-30.764 65.563-68.682 65.563-37.945 0-68.695-29.355-68.695-65.563h-81.184c-12.078 0-21.845-9.78-21.845-21.859v-87.422c0-12.065 9.767-21.859 21.831-21.859zM362.832 373.833l-117.693 117.693-48.355-48.355 166.048-166.048 269.2 269.214-48.341 48.355-220.859-220.859zM973.84 473.771l-84.549 84.563c-12.448 12.434-34.484 10.628-49.176-4.049l-46.536-46.549 129.676-129.662 46.522 46.549c14.718 14.664 16.51 36.714 4.063 49.148zM771.994 486.137l129.662-129.662-309.197-309.224c-1.423-1.423-5.348-5.362-10.875-6.757-0.643-0.287-1.286-0.561-1.942-0.78l-161.37-51.419c-4.514-1.423-9.055-0.52-11.996 2.449-2.941 2.941-3.871 7.482-2.449 11.996l51.433 161.342c0.219 0.67 0.479 1.313 0.78 1.956 1.409 5.526 5.335 9.452 6.771 10.888l309.183 309.211zM552.572 57.222l-79.83 79.83-21.407-67.232 34.019-34.019 67.218 21.421zM767.001 434.595c-4.596 4.596-12.024 4.596-16.62 0l-241.035-241.049c-4.596-4.582-4.596-12.037 0-16.62 4.582-4.582 12.024-4.582 16.62 0l241.035 241.049c4.596 4.596 4.596 12.037 0 16.62z" />
<glyph unicode="&#xe90a;" glyph-name="mark2" d="M864.079 509.39c-24.974 48.079 10.552 76.84 12.945 101.685 11.017 114.607-27.666 184.77-80.296 240.286-86.927 91.953-198.691 109.237-271.859 108.625-187.311-1.358-263.12-60.789-320.472-124.754-119.296-133.157-94.056-250.065-94.056-250.065 2.844-69.316 98.519-195.552 98.519-195.552 76.256-109.642 38.788-194.236 38.788-194.236 154.007-34.624 280.257-259.379 280.257-259.379 5.573 33.294 79.574 173.814 79.574 173.814 30.929 38.867 82.855 25.213 110.898 21.785 80.402-9.903 100.392 13.759 100.392 13.759 17.57 10.745 9.25 55.493 9.25 55.493-6.442 23.142 4.054 34.458 10.612 43.519 17.625 24.619 7.423 36.041 7.423 36.041-5.55 6.99-1.822 10.658-1.822 10.658 19.396 6.475 20.809 17.082 20.809 17.082l-0.488 35.604c-3.207 24.454 7.86 25.949 7.86 25.949 44.416 0.819 43.436 29.571 43.436 29.571 1.785 15.798-51.77 110.116-51.77 110.116zM285.402 525.399c-4.744 9.056-5.886 19.949-2.066 33.482 2.733 9.562 4.869 17.491 2.066 23.731-2.839 6.378-8.918 8.72-18.223 4.979-6.010-2.692-12.282-8.159-15.628-13.557l-15.098 17.082c4.882 6.788 14.187 15.393 27.132 21.187 24.086 10.814 41.034 2.393 47.817-12.756 6.217-13.874 1.703-26.847-1.781-37.661-3.428-10.497-2.95-18.849 0.87-26.98l1.468-3.29-24.247-10.892-2.31 4.675zM317.863 484.099c-9.655-4.284-19.406-0.138-23.667 9.328-4.321 9.724-0.667 19.64 8.803 23.869 9.862 4.408 19.355 0.368 23.842-9.236 4.284-9.48 0.856-19.535-8.978-23.961zM524.814 403.107c-31.527-7.616-58.604 10.363-66.045 41.356-7.657 31.527 8.868 59.487 39.865 66.951 32.111 7.777 58.493-9.806 66.707-41.195 7.505-30.882-8.32-59.335-40.528-67.112zM543.285 642.018c-16.129-29.714-19.419-55.12-12.333-81.778l2.609-10.745-79.21-19.162-4.349 15.315c-9.139 29.948-6.461 63.334 12.512 101.998 13.557 27.242 24.449 50.021 19.544 70.246-5.062 20.86-22.061 31.228-52.101 25.176-19.663-4.763-41.752-17.68-54.66-32.111l-35.889 59.961c18.37 17.721 51.245 38.245 93.471 48.47 78.566 19.056 124.823-15.733 136.815-65.198 10.934-45.153-9.82-81.668-26.41-112.173zM692.774 609.432c-3.562-15.872-17.27-25.406-33.837-21.665-16.24 3.617-24.592 17.993-21.053 33.975 3.645 16.24 17.57 25.351 33.51 21.785 16.539-3.737 24.702-17.772 21.38-34.095zM759.062 739.12c-5.223-23.308-23.013-35.401-37.564-45.682-14.141-10.027-21.458-20.975-24.182-34.817l-1.247-5.518-40.772 9.084 1.496 8.053c2.609 15.789 11.343 30.611 28.807 44.090 12.402 9.438 22.599 17.464 24.942 27.882 2.393 10.759-3.046 19.327-18.255 23.418-10.115 2.259-23.17 1.293-32.392-2.448l-2.941 35.742c12.429 3.985 32.231 5.982 53.988 1.141 40.371-9.033 53.809-35.512 48.121-60.946z" />
<glyph unicode="&#xe90b;" glyph-name="classreport" d="M260.942 186.248c-8.944-8.944-16.173-26.42-16.173-39.047v-164.474h95.483v259.957c0 12.627-7.23 15.647-16.173 6.703l-63.137-63.14zM680.34 342.076c-8.921-8.944-16.173-26.423-16.173-39.072v-320.302h95.483v415.9c0 12.627-7.23 15.624-16.173 6.681l-63.137-63.207zM820.111 482.052c-8.944-8.921-16.196-26.397-16.196-39.025v-460.3h88.78v548.917c0 12.627-7.252 15.647-16.196 6.703l-56.388-56.295zM543.362 205.12c0 0-4.255-4.278-9.515-9.54-5.237-5.263-9.492-19.787-9.492-32.414v-180.441h95.483v275.925c0 12.627-7.252 15.647-16.196 6.703l-60.28-60.232zM400.757 253.64c-8.944 8.921-16.196 5.924-16.196-6.703v-264.212h95.483v168.937c0 12.627-6.864 29.715-15.349 38.155l-15.349 15.281-48.59 48.542zM140.775 66.014l-30.835-30.883c-8.921-8.944-16.151-24.295-16.151-34.314v-18.118h106.577v120.122c0 12.627-7.23 15.624-16.173 6.681l-43.418-43.488zM1007.827 535.831c8.921-8.944 16.173-5.924 16.173 6.703v326.867c0 23.403-22.418 43.899-45.683 43.899h-324.971c-12.627 0-15.647-7.252-6.703-16.196l115.591-115.681-47.146-46.941-218.667-218.872-115.658 115.633c-8.944 8.944-23.403 8.921-32.346 0l-321.627-321.858c-35.732-35.755-35.709-93.699 0.023-129.428l2.243-2.265c35.732-35.732 93.677-35.732 129.383 0.023l206.132 206.245 115.658-115.543c8.944-8.921 23.425-8.921 32.369 0l381.266 381.334 113.964-113.919z" />
<glyph unicode="&#xe90c;" glyph-name="attendancereport" d="M317.705 743.634c54.452 0 98.665 63.204 98.665 117.672 0 54.517-44.208 98.695-98.665 98.695-54.512 0-98.705-44.208-98.705-98.69 0-54.472 44.193-117.677 98.705-117.677zM510.898 675.021c-0.716 2.804-1.312 5.593-2.619 8.157-1.082 2.088-2.624 3.7-4.056 5.548-1.647 2.148-3.154 4.376-5.242 6.159-1.938 1.617-4.146 2.594-6.309 3.845-1.908 1.051-3.4 2.579-5.548 3.37-3.54 1.282-82.076 29.437-154.258 33.157l-9.939-19.868h-0.245l26.282-204.685-31.219-54.547-31.219 54.547 26.297 204.685h-0.33l-9.924 19.868c-72.182-3.72-150.708-31.875-154.228-33.157-2.183-0.826-3.81-2.378-5.808-3.54-2.028-1.192-4.146-2.088-5.958-3.615-2.193-1.878-3.78-4.161-5.503-6.464-1.342-1.757-2.834-3.28-3.87-5.277-1.342-2.619-1.938-5.443-2.684-8.307-0.456-1.813-1.462-3.31-1.677-5.212l-31.219-280.988c-2.378-21.4 13.048-40.733 34.469-43.111 1.462-0.115 2.899-0.245 4.361-0.245 19.618 0 36.512 14.791 38.72 34.759l28.445 255.922c3.31 1.006 6.955 2.058 10.825 3.154v-266.397l-31.054-386.232c-2.073-25.766 17.134-48.358 42.931-50.396 1.282-0.095 2.514-0.15 3.795-0.15 24.129 0 44.648 18.566 46.616 43.081l28.065 349.069c5.808-2.564 12.182-4.026 18.887-4.026 6.725 0 13.109 1.462 18.887 4.026l28.065-349.069c1.968-24.515 22.487-43.081 46.621-43.081 1.282 0 2.529 0.030 3.81 0.15 25.792 2.038 44.984 24.665 42.926 50.396l-31.069 386.232v266.402c3.87-1.097 7.501-2.148 10.84-3.154l28.445-255.922c2.208-19.968 19.102-34.759 38.705-34.759 1.462 0 2.909 0.065 4.376 0.245 21.45 2.383 36.877 21.711 34.469 43.111l-31.224 280.988c-0.12 1.963-1.157 3.52-1.632 5.333zM898.447 585.765l-16.588 16.538-234.397-234.397-16.463 16.398-23.388-69.999 70.064 23.353-13.659 13.664zM565.596 194.366h91.65v-258.336h-91.65v258.336zM703.286 310.225h91.65v-374.22h-91.65v374.22zM840.971 452.757h91.655v-516.727h-91.655v516.727z" />
<glyph unicode="&#xe90d;" glyph-name="assignment" d="M242.857 510.938c-27.347 0-27.347-42.483 0-42.483 108.916 0 217.813 0 326.721 0 27.395 0 27.395 42.483 0 42.483-108.908 0-217.805 0-326.721 0zM569.579 410.493c-108.908 0-217.805 0-326.721 0-27.347 0-27.347-42.435 0-42.435 108.916 0 217.813 0 326.721 0 27.399 0 27.399 42.435 0 42.435zM569.579 317.459c-108.908 0-217.805 0-326.721 0-27.347 0-27.347-42.431 0-42.431 108.916 0 217.813 0 326.721 0 27.399 0.004 27.399 42.431 0 42.431zM569.579 217.034c-108.908 0-217.805 0-326.721 0-27.347 0-27.347-42.415 0-42.415 108.916 0 217.813 0 326.721 0 27.399 0.004 27.399 42.415 0 42.415zM563.338 122.26c-108.948 0-217.885 0-326.781 0-27.327 0-27.327-42.431 0-42.431 108.897 0 217.833 0 326.781 0 27.315 0.004 27.315 42.431 0 42.431zM101.207 728.204v-792.204h610.054v682.294l-113.354 109.91h-496.7zM658.535-11.258h-504.562v686.716h416.779v-83.681h87.743v-603.035h0.040zM204.329 849.595v-91.694h52.766v38.967h416.799v-83.681h87.763v-603.047h-23.181v-52.742h75.927v682.306l-113.354 109.89zM809.419 960h-496.712v-91.713h52.746v38.967h416.811v-83.681h87.763v-603.035h-23.161v-52.742h75.927v682.294z" />
<glyph unicode="&#xe90e;" glyph-name="administrator" d="M415.691 437.406c1.528-4.857 3.408-9.833 5.608-14.769 4.479-11.71 10.944-23.857 18.721-35.097 3.272-4.76 7.58-10.5 12.684-16.187-4.637-3.295-7.961-7.202-9.452-11.742l-61.918-18.763c-29.959-8.604-51.665-100.273-62.309-156.759 56.417-34.315 122.457-54.033 192.659-54.033 0.013 0 0.018 0 0.032 0 8.237 0.005 16.584 0.284 24.812 0.822 60.715 4.004 118.285 22.402 168.886 53.256-10.61 57.404-32.534 148.026-62.753 156.711l-61.918 18.763c-1.489 4.54-4.815 8.447-9.447 11.742 5.099 5.687 9.41 11.422 12.682 16.184 7.775 11.246 14.241 23.389 18.723 35.105 2.198 4.931 4.078 9.891 5.608 14.756 6.023 5.054 9.573 12.585 9.573 20.506v19.385c0 5.566-1.754 11.009-4.973 15.523v27.299c0 47.884-38.954 86.843-86.838 86.843h-28.147c-47.881 0-86.838-38.959-86.838-86.843v-27.301c-3.219-4.511-4.973-9.959-4.973-15.52v-19.385c0-7.906 3.55-15.447 9.576-20.496zM495.338 292.097c-0.234-2.271-1.841-4.188-4.046-4.792-0.496-0.15-0.992-0.215-1.494-0.215-1.717 0-3.374 0.811-4.443 2.234l-15.636 20.729c-0.727 0.974-1.121 2.148-1.121 3.358l0.021 33.262c0.003 1.961 1.019 3.765 2.689 4.776 1.675 0.995 3.752 1.063 5.477 0.144 4.548-2.416 9.090-4.020 13.509-4.802 2.657-0.467 4.592-2.781 4.592-5.482v-13.871c0.79-0.312 1.51-0.819 2.098-1.457 1.058-1.163 1.568-2.731 1.405-4.303l-3.051-29.58zM555.378 313.41c0-1.21-0.391-2.384-1.116-3.358l-15.62-20.729c-1.071-1.413-2.728-2.203-4.443-2.203-0.501 0-0.998 0.053-1.494 0.2-2.203 0.609-3.81 2.505-4.043 4.776l-3.051 29.58c-0.163 1.573 0.349 3.138 1.407 4.303 0.588 0.638 1.305 1.145 2.093 1.457v13.871c0 2.702 1.94 5.015 4.597 5.482 4.414 0.782 8.959 2.387 13.504 4.797 1.725 0.924 3.802 0.853 5.477-0.142 1.675-1.011 2.691-2.815 2.691-4.773v-33.262zM435.87 470.567c0 3.083 2.486 5.572 5.561 5.572h2.274v9.922c0 2.111 1.195 4.038 3.080 4.981 7.667 3.823 22.875 10.235 38.621 10.235 12.558 0 22.974-4.162 30.954-12.419 9.951-10.279 21.407-15.489 34.065-15.489 7.165 0 14.578 1.688 22.021 5.031 1.722 0.767 3.715 0.614 5.301-0.407 0.743-0.467 1.35-1.126 1.78-1.854h3.040c3.069 0 5.561-2.489 5.561-5.572v-9.158c0-1.885-0.956-3.639-2.528-4.668l-5.406-3.5-0.297-2.308c-1.759-13.299-9.227-30.549-19.973-46.117-13.617-19.747-26.367-28.58-32.973-28.58h-29.911c-6.603 0-19.359 8.83-32.97 28.58-10.752 15.57-18.217 32.813-19.973 46.114l-0.299 2.313-5.406 3.5c-1.573 1.032-2.526 2.786-2.526 4.668v9.156zM272.825 687.191c-47.884 0-86.838-38.962-86.838-86.843v-27.301c-3.222-4.511-4.973-9.962-4.973-15.52v-19.385c0-7.908 3.55-15.447 9.578-20.498 1.525-4.868 3.408-9.833 5.608-14.78 4.482-11.71 10.946-23.843 18.721-35.097 3.272-4.75 7.583-10.5 12.687-16.177-4.64-3.298-7.961-7.213-9.452-11.744l-61.918-18.768c-2.426-0.701-4.8-1.967-7.121-3.7 20.876-88.468 73.263-164.552 144.245-216.159h6.291c2.505 12.464 5.461 26.052 8.851 39.828 23.893 97.038 48.075 115.801 66.513 121.168l45.825 13.887c-8.245 12.117-15.189 25.227-20.136 38.011-1.633 3.707-3.122 7.446-4.453 11.185-0.853 0.953-1.644 1.953-2.418 2.972l-38.187 11.576c-1.489 4.532-4.813 8.447-9.447 11.744 5.099 5.677 9.41 11.419 12.682 16.174 7.775 11.259 14.241 23.389 18.723 35.105 2.198 4.941 4.078 9.893 5.608 14.767 6.023 5.046 9.573 12.587 9.573 20.504v19.385c0 5.564-1.751 11.009-4.973 15.523v27.301c0 47.881-38.954 86.843-86.833 86.843h-28.157zM270.236 372.332c-0.234-2.276-1.841-4.185-4.046-4.789-0.496-0.15-0.992-0.215-1.497-0.215-1.715 0-3.369 0.811-4.44 2.224l-15.636 20.737c-0.727 0.966-1.121 2.148-1.121 3.361l0.021 33.259c0.003 1.956 1.019 3.76 2.689 4.768 1.675 0.998 3.752 1.071 5.477 0.155 4.548-2.413 9.093-4.020 13.509-4.805 2.657-0.475 4.595-2.778 4.595-5.482v-13.879c0.79-0.312 1.51-0.814 2.098-1.444 1.056-1.168 1.568-2.741 1.405-4.303l-3.054-29.586zM330.277 393.649c0-1.213-0.394-2.395-1.119-3.361l-15.62-20.737c-1.069-1.402-2.728-2.203-4.443-2.203-0.501 0-0.998 0.060-1.497 0.2-2.2 0.612-3.81 2.507-4.041 4.784l-3.054 29.586c-0.16 1.562 0.349 3.132 1.407 4.303 0.588 0.63 1.305 1.132 2.093 1.444v13.879c0 2.704 1.94 5.007 4.595 5.482 4.416 0.785 8.961 2.392 13.506 4.8 1.722 0.922 3.802 0.845 5.477-0.152 1.675-1.008 2.694-2.812 2.694-4.766v-33.259zM347.346 558.637c1.72 0.769 3.715 0.612 5.301-0.404 0.743-0.478 1.35-1.126 1.78-1.862h3.040c3.069 0 5.561-2.492 5.561-5.566v-9.156c0-1.896-0.953-3.642-2.528-4.676l-5.406-3.503-0.297-2.305c-1.759-13.299-9.224-30.539-19.973-46.114-13.614-19.747-26.367-28.585-32.97-28.585h-29.911c-6.603 0-19.356 8.835-32.965 28.585-10.752 15.575-18.217 32.807-19.976 46.106l-0.299 2.313-5.404 3.503c-1.573 1.037-2.528 2.783-2.528 4.676v9.156c0 3.075 2.486 5.566 5.564 5.566h2.271v9.93c0 2.111 1.195 4.038 3.080 4.976 7.667 3.828 22.875 10.243 38.621 10.243 12.558 0 22.977-4.17 30.954-12.422 9.951-10.277 21.409-15.486 34.068-15.486 7.163-0.005 14.575 1.683 22.019 5.025zM648.993 362.215c18.54-5.401 42.827-23.988 66.602-119.435 3.529-14.165 6.627-28.362 9.248-41.561h6.176c22.16 16.179 42.703 34.939 61.246 56.099 40.881 46.658 68.934 101.429 82.729 160.033-2.353 1.738-4.76 3.017-7.226 3.726l-61.918 18.768c-1.489 4.532-4.813 8.447-9.45 11.744 5.099 5.677 9.41 11.419 12.682 16.174 7.775 11.259 14.239 23.389 18.723 35.105 2.198 4.941 4.075 9.893 5.608 14.767 6.023 5.046 9.573 12.587 9.573 20.504v19.385c0 5.564-1.751 11.009-4.973 15.523v27.301c0 47.881-38.954 86.843-86.835 86.843h-28.149c-47.879 0-86.835-38.962-86.835-86.843v-27.301c-3.222-4.511-4.973-9.962-4.973-15.52v-19.385c0-7.908 3.55-15.447 9.576-20.498 1.528-4.868 3.408-9.833 5.608-14.78 4.477-11.71 10.944-23.843 18.721-35.097 3.272-4.75 7.583-10.5 12.684-16.177-4.64-3.298-7.961-7.213-9.452-11.744l-38.179-11.576c-0.775-1.019-1.568-2.019-2.426-2.983-1.329-3.731-2.815-7.465-4.45-11.175-4.939-12.763-11.881-25.865-20.136-38.011l45.828-13.884zM720.442 372.332c-0.231-2.276-1.841-4.185-4.043-4.789-0.496-0.15-0.992-0.215-1.497-0.215-1.717 0-3.371 0.811-4.443 2.224l-15.638 20.737c-0.727 0.966-1.121 2.148-1.121 3.361l0.021 33.259c0.003 1.956 1.019 3.76 2.691 4.768 1.675 0.998 3.752 1.071 5.474 0.155 4.548-2.413 9.093-4.020 13.512-4.805 2.655-0.475 4.595-2.778 4.595-5.482v-13.879c0.79-0.312 1.51-0.814 2.095-1.444 1.058-1.168 1.57-2.741 1.405-4.303l-3.051-29.586zM780.48 393.649c0-1.213-0.391-2.395-1.116-3.361l-15.617-20.737c-1.074-1.402-2.731-2.203-4.443-2.203-0.501 0-0.998 0.060-1.494 0.2-2.203 0.612-3.81 2.507-4.043 4.784l-3.051 29.586c-0.16 1.562 0.349 3.132 1.407 4.303 0.588 0.63 1.302 1.132 2.093 1.444v13.879c0 2.704 1.94 5.007 4.595 5.482 4.414 0.785 8.959 2.392 13.504 4.8 1.725 0.922 3.802 0.845 5.477-0.152 1.675-1.008 2.691-2.812 2.691-4.766v-33.259zM669.205 531.154l-0.299 2.313-5.406 3.503c-1.575 1.037-2.528 2.783-2.528 4.676v9.156c0 3.075 2.489 5.566 5.561 5.566h2.274v9.93c0 2.111 1.195 4.038 3.080 4.976 7.669 3.828 22.877 10.243 38.623 10.243 12.561 0 22.977-4.17 30.956-12.422 9.951-10.277 21.407-15.486 34.065-15.486 7.165 0 14.58 1.688 22.024 5.028 1.72 0.769 3.715 0.612 5.301-0.404 0.743-0.478 1.35-1.126 1.78-1.862h3.038c3.072 0 5.564-2.492 5.564-5.566v-9.156c0-1.896-0.956-3.642-2.528-4.676l-5.406-3.503-0.297-2.305c-1.759-13.299-9.227-30.539-19.976-46.114-13.611-19.747-26.364-28.585-32.968-28.585h-29.911c-6.603 0-19.356 8.835-32.97 28.585-10.755 15.573-18.217 32.805-19.976 46.104zM1022.863 515.009c-4.653 70.548-23.295 137.967-55.406 200.371-24.345 47.317-55.648 90.199-93.184 127.698l13.057 19.91c6.548 9.991 7.273 22.714 1.898 33.38-5.375 10.668-16.032 17.66-27.958 18.332l-144.056 8.187c-11.931 0.667-23.303-5.054-29.854-15.042-6.551-9.985-7.276-22.707-1.898-33.377l64.924-128.859c5.377-10.665 16.032-17.657 27.955-18.335 11.92-0.683 23.305 5.057 29.856 15.045l6.54 9.972c60.419-67.264 96.621-153.004 102.634-244.24 14.743-223.526-155.115-417.377-378.644-432.112-223.526-14.746-417.372 155.112-432.117 378.638-10.004 151.675 64.546 295.012 194.56 374.093 24.899 15.153 32.831 47.729 17.689 72.625-10.277 16.896-28.927 26.585-48.669 25.28-8.544-0.559-16.602-3.114-23.964-7.588-163.79-99.627-257.707-280.243-245.101-471.363 8.998-136.465 70.601-261.251 173.452-351.376 102.852-90.123 234.648-134.803 371.105-125.802s261.243 70.603 351.371 173.452c90.128 102.852 134.808 234.651 125.808 371.111z" />
<glyph unicode="&#xe90f;" glyph-name="academicmain" d="M448.61 365.105h41.448c7.314 0 12.19 4.876 12.19 12.19v58.514c0 7.314-4.876 12.19-12.19 12.19h-41.448c-7.314 0-12.19-4.876-12.19-12.19v-58.514c0-4.876 4.876-12.19 12.19-12.19zM533.943 365.105h41.45c7.314 0 12.19 4.876 12.19 12.19v58.514c0 7.314-4.876 12.19-12.19 12.19h-41.45c-7.314 0-12.188-4.876-12.188-12.19v-58.514c0-4.876 4.874-12.19 12.188-12.19zM448.61 474.819h41.448c7.314 0 12.19 4.876 12.19 12.19v58.514c0 7.314-4.876 12.19-12.19 12.19h-41.448c-7.314 0-12.19-4.876-12.19-12.19v-58.514c0-7.314 4.876-12.19 12.19-12.19zM533.943 474.819h41.45c7.314 0 12.19 4.876 12.19 12.19v58.514c0 7.314-4.876 12.19-12.19 12.19h-41.45c-7.314 0-12.188-4.876-12.188-12.19v-58.514c0-7.314 4.874-12.19 12.188-12.19zM160.914 238.324h-41.448c-7.314 0-12.19-4.876-12.19-12.19v-58.514c0-7.314 4.876-12.19 12.19-12.19h41.448c7.314 0 12.19 4.876 12.19 12.19v58.514c0 7.314-4.876 12.19-12.19 12.19zM160.914 126.171h-41.448c-7.314 0-12.19-4.874-12.19-12.188v-56.076c0-7.314 4.876-12.19 12.19-12.19h41.448c7.314 0 12.19 4.876 12.19 12.19v58.514c0 4.874-4.876 9.75-12.19 9.75zM248.686 238.324h-41.448c-7.314 0-12.19-4.876-12.19-12.19v-58.514c0-7.314 4.876-12.19 12.19-12.19h41.448c7.314 0 12.19 4.876 12.19 12.19v58.514c0 7.314-4.876 12.19-12.19 12.19zM248.686 126.171h-41.448c-7.314 0-12.19-4.874-12.19-12.188v-56.076c0-7.314 4.876-12.19 12.19-12.19h41.448c7.314 0 12.19 4.876 12.19 12.19v58.514c0 4.874-4.876 9.75-12.19 9.75zM160.914 345.6h-41.448c-7.314 0-12.19-4.876-12.19-12.19v-56.074c0-7.314 4.876-12.19 12.19-12.19h41.448c7.314 0 12.19 4.876 12.19 12.19v58.514c0 4.874-4.876 9.75-12.19 9.75zM248.686 345.6h-41.448c-7.314 0-12.19-4.876-12.19-12.19v-56.074c0-7.314 4.876-12.19 12.19-12.19h41.448c7.314 0 12.19 4.876 12.19 12.19v58.514c0 4.874-4.876 9.75-12.19 9.75zM775.314 157.867h41.448c7.314 0 12.19 4.876 12.19 12.19v58.514c0 7.314-4.876 12.19-12.19 12.19h-41.448c-7.316 0-12.19-4.876-12.19-12.19v-58.514c0-7.314 4.876-12.19 12.19-12.19zM775.314 45.714h41.448c7.314 0 12.19 4.876 12.19 12.19v58.514c0 7.314-4.876 12.19-12.19 12.19h-41.448c-7.316 0-12.19-4.876-12.19-12.19v-58.514c0-7.314 4.876-12.19 12.19-12.19zM863.086 157.867h41.45c7.314 0 12.188 4.876 12.188 12.19v58.514c0 7.314-4.874 12.19-12.188 12.19h-41.45c-7.314 0-12.19-4.876-12.19-12.19v-58.514c0-7.314 4.876-12.19 12.19-12.19zM863.086 45.714h41.45c7.314 0 12.188 4.876 12.188 12.19v58.514c0 7.314-4.874 12.19-12.188 12.19h-41.45c-7.314 0-12.19-4.876-12.19-12.19v-58.514c0-7.314 4.876-12.19 12.19-12.19zM775.314 265.143h41.448c7.314 0 12.19 4.876 12.19 12.19v58.514c0 7.314-4.876 12.19-12.19 12.19h-41.448c-7.316 0-12.19-4.876-12.19-12.19v-58.514c0-7.314 4.876-12.19 12.19-12.19zM863.086 265.143h41.45c7.314 0 12.188 4.876 12.188 12.19v58.514c0 7.314-4.874 12.19-12.188 12.19h-41.45c-7.314 0-12.19-4.876-12.19-12.19v-58.514c0-7.314 4.876-12.19 12.19-12.19zM1014.248 526.019c-7.314 7.314-17.065 9.752-26.819 9.752h-256v63.39c0 12.19-7.314 24.381-17.067 29.257l-165.79 112.152v34.133h119.467c19.505 0 36.571 17.067 36.571 36.571v82.895c0 19.505-17.067 36.571-36.571 36.571h-121.905c-4.876 14.629-19.505 24.381-34.133 24.381-19.505 0-36.571-17.067-36.571-36.571v-177.981l-165.79-109.714c-9.752-7.314-17.067-17.067-17.067-29.257v-63.39h-256c-19.505-2.438-36.571-17.067-36.571-39.010v-521.754c0-19.505 17.067-36.569 36.571-36.569h950.857c19.505 0 36.571 17.065 36.571 36.569v521.754c0 9.752-4.876 19.505-9.752 26.819zM365.714 579.657l146.286 97.524 146.286-97.524v-565.638h-46.326v170.667c0 56.076-46.324 99.964-99.962 99.964s-99.962-46.324-99.962-99.964v-170.667h-46.322v565.638zM73.143 384.61h219.429v-370.59h-219.429v370.59zM950.857 14.019h-219.429v370.59h219.429v-370.59z" />
<glyph unicode="&#xe98d;" glyph-name="key-new" d="M704 960c-176.73 0-320-143.268-320-320 0-20.026 1.858-39.616 5.376-58.624l-389.376-389.376v-192c0-35.346 28.654-64 64-64h64v64h128v128h128v128h128l83.042 83.042c34.010-12.316 70.696-19.042 108.958-19.042 176.73 0 320 143.268 320 320s-143.27 320-320 320zM799.874 639.874c-53.020 0-96 42.98-96 96s42.98 96 96 96 96-42.98 96-96-42.98-96-96-96z" />
<glyph unicode="&#xe98f;" glyph-name="lock-new" d="M802.133 548.267h-17.067v204.8c0 112.928-91.872 204.8-204.8 204.8h-136.533c-112.928 0-204.8-91.872-204.8-204.8v-204.8h-17.067c-28.16 0-51.2-23.040-51.2-51.2v-512c0-28.16 23.040-51.2 51.2-51.2h580.267c28.16 0 51.2 23.040 51.2 51.2v512c0 28.16-23.040 51.2-51.2 51.2zM375.467 753.067c0 37.643 30.624 68.267 68.267 68.267h136.533c37.643 0 68.267-30.624 68.267-68.267v-204.8h-273.067v204.8z" />
</font>
</defs>
</svg>
